img image001 image001 image001 image001 image001 image001 image001 image001 image001 image001 image001 image001 image001 image001 image001

Planets Sun Sun Sun
Статистика раздачи
Автор: PriZraK | Размер: 4.07 ГБ | Добавлен: 13 авг 2019
Раздают: 4    Качают: 0
Скачать торрент
Скачать торрент
Описание торрента

СообщениеДобавлено: 13 авг 2019 

Информация о фильме
Название: Человек со звезды
Оригинальное название: Starman
Год выхода: 1984
Жанр: Фантастика, драма, мелодрама, приключения
Режиссер: Джон Карпентер
В ролях: Джефф Бриджес, Карен Аллен, Чарльз Мартин Смит, Ричард Джэкел, Роберт Фален, Тони Эдвардс, Джон Уолтер Дэвис, Тед Уайт, Дирк Блокер, М. К. Гейни, Шон Станек, Джордж «Бак» Флауэр, Русс Беннинг, Ральф Кошам, Дэвид Уэллс, Энтони Грумбах, Джеймс Дит, Алекс Дэниелс, Кэрол Розенталь, Мики Джонс, Лу Леонард, Чарли Хьюз, Байрон Уоллс, Бетти Банч, Виктор МакЛемор, Стивен Бреннан, Пэт Ли, Джудит Ким, Рон Колби, Роберт Стейн

О фильме:
Человек со звезды прилетает на Землю с единственной целью: выяснить, что такое любовь. Он приземляется где-то в штате Висконсин и решает принять облик покойного мужа скромной вдовы Дженни Хайден. Он узнает от Дженни, что такое любовь, и ему уже не хочется возвращаться на корабль. Но его друзья-инопланетяне считают, что, оставшись, Человек со звезды погибнет. К тому же, странным воскрешением мужа Дженни интересуется полиция.


Страна: США
Студия: Columbia Pictures Corporation, Delphi II, Industrial Light & Magic (ILM)
Продолжительность: 01:54:59
Перевод: Дублированный (со вставками любительского одноголосого на непереведенные места) + авторский одноголосый (Ю. Живов) + любительский одноголосый + украинский + оригинал

Файл
Кодек: MPEG-4 AVC
Качество: BDRip-AVC
Видео: 3400 Кбит/с, 1024x426, 23.976 кадр/с
Звук:
Аудио #1: Русский (AC3, 2 ch, 192 Кбит/с) / Дублированный (со вставками Любительского одноголосого (AlexPrapor) на места без перевода)
Аудио #2: Русский (AC3, 6 ch, 448 Кбит/с) / Авторский одноголосый (Ю. Живов)
Аудио #3: Русский (AC3, 2 ch, 192 Кбит/с) / Любительский одноголосый (AlexPrapor)
Аудио #4: Украинский (AC3, 6 ch, 384 Кбит/с) / Профессиональный многоголосый (Enter)
Аудио #5: Английский (AC3, 6 ch, 448 Кбит/с)
Субтитры: Русские, английские (2 вида)

Семпл

Общее
Уникальный идентификатор : 253352471443015478536341292160742894530 (0xBE99E93F6678FEAF8D7488E344D4ABC2)
Полное имя : D:2Films DРелизыChelovek.so.zvezdy.1984.x264.BDRip.AVC.MediaClub.mkv
Формат : Matroska
Версия формата : Version 2
Размер файла : 4,07 Гбайт
Продолжительность : 1 ч. 54 м.
Общий поток : 5064 Кбит/сек
Название фильма : = MediaClub = rip by Lefevr
Дата кодирования : UTC 2013-10-10 12:44:35
Программа кодирования : mkvmerge v5.4.0 ('Piper') built on Mar 10 2012 13:34:39
Библиотека кодирования : libebml v1.2.3 + libmatroska v1.3.0

Видео
Идентификатор : 1
Формат : AVC
Формат/Информация : Advanced Video Codec
Профиль формата : High@L4.1
Параметр CABAC формата : Да
Параметр ReFrames формата : 9 кадров
Идентификатор кодека : V_MPEG4/ISO/AVC
Продолжительность : 1 ч. 54 м.
Битрейт : 3400 Кбит/сек
Ширина : 1024 пикселя
Высота : 426 пикселей
Соотношение сторон : 2,40:1
Режим частоты кадров : Постоянный
Частота кадров : 23,976 кадра/сек
Цветовое пространство : YUV
Субдискретизация насыщенности : 4:2:0
Битовая глубина : 8 бит
Тип развёртки : Прогрессивная
Бит/(Пиксели*Кадры) : 0.325
Размер потока : 2,65 Гбайт (65%)
Заголовок : Chelovek.so.zvezdy.1984.x264.BDRip.AVC.MediaClub
Библиотека кодирования : x264 core 130 r2273 b3065e6
Настройки программы : cabac=1 / ref=9 / deblock=1:-2:-2 / analyse=0x3:0x133 / me=umh / subme=11 / psy=1 / psy_rd=1.00:0.20 / mixed_ref=1 / me_range=32 / chroma_me=1 / trellis=2 / 8x8dct=1 / cqm=0 / deadzone=21,11 / fast_pskip=0 / chroma_qp_offset=-3 / threads=6 / lookahead_threads=1 / sliced_threads=0 / nr=0 / decimate=0 / interlaced=0 / bluray_compat=0 / constrained_intra=0 / bframes=8 / b_pyramid=2 / b_adapt=2 / b_bias=0 / direct=3 / weightb=1 / open_gop=0 / weightp=2 / keyint=240 / keyint_min=23 / scenecut=40 / intra_refresh=0 / rc=2pass / mbtree=0 / bitrate=3400 / ratetol=1.0 / qcomp=0.60 / qpmin=0 / qpmax=69 / qpstep=4 / cplxblur=20.0 / qblur=0.5 / ip_ratio=1.40 / pb_ratio=1.30 / aq=1:1.00
Язык : English
Default : Да
Forced : Нет

Аудио #1
Идентификатор : 2
Формат : AC-3
Формат/Информация : Audio Coding 3
Расширение режима : CM (complete main)
Параметр Endianness формата : Big
Идентификатор кодека : A_AC3
Продолжительность : 1 ч. 54 м.
Вид битрейта : Постоянный
Битрейт : 192 Кбит/сек
Каналы : 2 канала
Расположение каналов : Front: L R
Частота : 48,0 КГц
Битовая глубина : 16 бит
Метод сжатия : С потерями
Размер потока : 158 Мбайт (4%)
Заголовок : TRACK_01_DUB_RUS
Язык : Russian
Default : Да
Forced : Нет

Аудио #2
Идентификатор : 3
Формат : AC-3
Формат/Информация : Audio Coding 3
Расширение режима : CM (complete main)
Параметр Endianness формата : Big
Идентификатор кодека : A_AC3
Продолжительность : 1 ч. 54 м.
Вид битрейта : Постоянный
Битрейт : 448 Кбит/сек
Каналы : 6 каналов
Расположение каналов : Front: L C R, Side: L R, LFE
Частота : 48,0 КГц
Битовая глубина : 16 бит
Метод сжатия : С потерями
Размер потока : 368 Мбайт (9%)
Заголовок : TRACK_02_AVO_RUS_Zhivov
Язык : Russian
Default : Нет
Forced : Нет

Аудио #3
Идентификатор : 4
Формат : AC-3
Формат/Информация : Audio Coding 3
Расширение режима : CM (complete main)
Параметр Endianness формата : Big
Идентификатор кодека : A_AC3
Продолжительность : 1 ч. 54 м.
Вид битрейта : Постоянный
Битрейт : 192 Кбит/сек
Каналы : 2 канала
Расположение каналов : Front: L R
Частота : 48,0 КГц
Битовая глубина : 16 бит
Метод сжатия : С потерями
Размер потока : 158 Мбайт (4%)
Заголовок : TRACK_03_VO_RUS_AlexPrapor
Язык : Russian
Default : Нет
Forced : Нет

Аудио #4
Идентификатор : 5
Формат : AC-3
Формат/Информация : Audio Coding 3
Расширение режима : CM (complete main)
Параметр Endianness формата : Big
Идентификатор кодека : A_AC3
Продолжительность : 1 ч. 54 м.
Вид битрейта : Постоянный
Битрейт : 384 Кбит/сек
Каналы : 6 каналов
Расположение каналов : Front: L C R, Side: L R, LFE
Частота : 48,0 КГц
Битовая глубина : 16 бит
Метод сжатия : С потерями
Размер потока : 316 Мбайт (8%)
Заголовок : TRACK_04_MVO_UKR_Enter
Язык : Ukrainian
Default : Нет
Forced : Нет

Аудио #5
Идентификатор : 6
Формат : AC-3
Формат/Информация : Audio Coding 3
Расширение режима : CM (complete main)
Параметр Endianness формата : Big
Идентификатор кодека : A_AC3
Продолжительность : 1 ч. 54 м.
Вид битрейта : Постоянный
Битрейт : 448 Кбит/сек
Каналы : 6 каналов
Расположение каналов : Front: L C R, Side: L R, LFE
Частота : 48,0 КГц
Битовая глубина : 16 бит
Метод сжатия : С потерями
Размер потока : 368 Мбайт (9%)
Заголовок : TRACK_05_ORIGINAL_ENG
Язык : English
Default : Нет
Forced : Нет

Текст #1
Идентификатор : 7
Формат : UTF-8
Идентификатор кодека : S_TEXT/UTF8
Идентификатор кодека/Информация : UTF-8 Plain Text
Заголовок : TEXT_01_SUB_RUS
Язык : Russian
Default : Нет
Forced : Нет

Текст #2
Идентификатор : 8
Формат : UTF-8
Идентификатор кодека : S_TEXT/UTF8
Идентификатор кодека/Информация : UTF-8 Plain Text
Заголовок : TEXT_02_SUB_ENG
Язык : English
Default : Нет
Forced : Нет

Текст #3
Идентификатор : 9
Формат : UTF-8
Идентификатор кодека : S_TEXT/UTF8
Идентификатор кодека/Информация : UTF-8 Plain Text
Заголовок : TEXT_03_SUB_ENG
Язык : English
Default : Нет
Forced : Нет

Меню
00:00:00.000 : en:Chapter 01
00:06:55.789 : en:Chapter 02
00:16:40.374 : en:Chapter 03
00:22:31.849 : en:Chapter 04
00:27:41.826 : en:Chapter 05
00:38:25.761 : en:Chapter 06
00:46:05.679 : en:Chapter 07
00:53:05.640 : en:Chapter 08
00:58:36.470 : en:Chapter 09
01:04:07.635 : en:Chapter 10
01:11:54.600 : en:Chapter 11
01:16:40.012 : en:Chapter 12
01:23:17.200 : en:Chapter 13
01:28:09.993 : en:Chapter 14
01:33:20.928 : en:Chapter 15
01:40:46.749 : en:Chapter 16

x264 [info]: frame I:1074 Avg QP:16.51 size: 80116
x264 [info]: frame P:32576 Avg QP:19.02 size: 32422
x264 [info]: frame B:131758 Avg QP:20.40 size: 13566

• За помощь в подготовке релиза спасибо Константину - Painter
• За постер спасибо Рамилю - Lordar от Media-Art-Club

• За исходник спасибо HDClub by MachoSergio
• За украинскую дорожку спасибо трекеру Hurtom

Сохранены оригинальные чаптеры как на Blu-ray.
x264 log
x264 [info]: frame I:1074 Avg QP:16.51 size: 80116
x264 [info]: frame P:32576 Avg QP:19.02 size: 32422
x264 [info]: frame B:131758 Avg QP:20.40 size: 13566




Релиз от: | Автор рипа:



   Похожие торренты   Торрент   Размер 
В этой теме нет новых непрочитанных сообщений. Человек со звезды / Starman (1984) BDRip от HQ-ViDEO | D, A

11 | 2

2.19 ГБ

В этой теме нет новых непрочитанных сообщений. Человек со звезды / Starman (1984) HDRip от Scarabey | D

98 | 5

745.54 МБ

В этой теме нет новых непрочитанных сообщений. Человек со звезды / Starman (1984) HDRip от Scarabey | D

70 | 9

1.45 ГБ

В этой теме нет новых непрочитанных сообщений. Человек без звезды / Man Without a Star (1955) BDRip от ENGINEER

69 | 18

1.45 ГБ

В этой теме нет новых непрочитанных сообщений. Человек без звезды / Man Without a Star (1955) BDRip 720p от Koenig | A

2 | 0

3.89 ГБ

В этой теме нет новых непрочитанных сообщений. Человек со звезды / You Who Came From the Stars [01-21 из 21] (2013) HDTVRip | L2

111 | 49

13.37 ГБ

В этой теме нет новых непрочитанных сообщений. Человек без звезды / Man Without a Star (1955) BDRemux от ENGINEER

11 | 8

16.52 ГБ




Вы не можете начинать темы
Вы не можете отвечать на сообщения
Вы не можете редактировать свои сообщения
Вы не можете удалять свои сообщения
Вы не можете добавлять вложения

Перейти:  
 Вход
ppkBB3cker v.2 © 2008-2014 @ PPK
[ Time : 0.034s | 16 Queries | GZIP : Off ]

cron