img image001 image001 image001 image001 image001 image001 image001 image001 image001 image001 image001 image001 image001 image001 image001

Planets Sun Sun Sun
Статистика раздачи
Автор: PriZraK | Размер: 2.01 ГБ | Добавлен: 13 авг 2019
Раздают: 32    Качают: 12
Скачать торрент
Скачать торрент
Описание торрента

СообщениеДобавлено: 13 авг 2019 

Информация о фильме
Название: Прощай, любовник
Оригинальное название: Goodbye Lover
Год выхода: 1998
Жанр: триллер, комедия, криминал, детектив
Режиссер: Роланд Жоффе
В ролях: Патриция Аркетт, Дермот Малруни, Мэри-Луиз Паркер, Эллен ДеДженерес, Рэй МакКиннон, Алекс Рокко, Дон Джонсон, Андре Грегори, Джон Невилл, ДжоНелл Кеннеди, ...

О фильме:
Один из самых восхитительных образов роковой женщины — современная, деловая, убивающая своих любовников. В сплетенную ею паутину интриг попадают буквально все окружающие.
Под подозрением — ее муж, ее любовник, жена ее любовника, любовница ее мужа и даже — полицейские, расследующие убийства…



Страна: США
Студия: Regency Enterprises, Gotham Entertainment Group, Lightmotive
Продолжительность: 01:41:00
Перевод: Дубляж [Варус-Видео R5 от «Мост-Видео»]
Субтитры: Russian, English

Файл
Формат: Matroska
Качество: WEB-DLRip-AVC
Видео: 1010x428 at 23.976 fps, x264, ~2081 kbps
Аудио #1: AC3, 6 ch, ~384 kbps - | Русский | - DUB
Аудио #2: AC3, 6 ch, ~384 kbps - | Английский | -
Формат субтитров: softsub (SRT)

***Релиз от: -=DoMiNo=-

x264 info: frame I:959 Avg QP:15.33 size: 57718
x264 info: frame P:30850 Avg QP:16.85 size: 22252
x264 info: frame B:113486 Avg QP:19.08 size: 7351
x264 info: consecutive B-frames: 1.0% 1.6% 4.9% 34.3% 14.9% 34.4% 4.0% 2.7% 1.1% 0.7% 0.3%

General
Complete name : Прощай, любовник.(1998).WEB-DLRip-AVC.[-=DoMiNo=-].mkv
Format : Matroska
Format version : Version 4
File size : 2.01 GiB
Duration : 1 h 41 min
Overall bit rate : 2 851 kb/s
Encoded date : UTC 2019-08-12 15:33:54
Writing application : mkvmerge v36.0.0 ('Is That Jazz?') 64-bit
Writing library : libebml v1.3.9 + libmatroska v1.5.2
Attachments : poster / poster

Video
ID : 1
Format : AVC
Format/Info : Advanced Video Codec
Format profile : High@L4.1
Format settings : CABAC / 12 Ref Frames
Format settings, CABAC : Yes
Format settings, Reference : 12 frames
Codec ID : V_MPEG4/ISO/AVC
Duration : 1 h 41 min
Bit rate : 2 081 kb/s
Width : 1 010 pixels
Height : 428 pixels
Display aspect ratio : 2.35:1
Frame rate mode : Constant
Frame rate : 23.976 (24000/1001) FPS
Color space : YUV
Chroma subsampling : 4:2:0
Bit depth : 8 bits
Scan type : Progressive
Bits/(Pixel*Frame) : 0.201
Stream size : 1.47 GiB (73%)
Title : RIP_BY_-=DoMiNo=-
Writing library : x264 core 157 r2958 57baac4
Encoding settings : cabac=1 / ref=12 / deblock=1:-3:-3 / analyse=0x3:0x133 / me=umh / subme=11 / psy=1 / psy_rd=1.00:0.00 / mixed_ref=1 / me_range=32 / chroma_me=1 / trellis=2 / 8x8dct=1 / cqm=0 / deadzone=21,11 / fast_pskip=1 / chroma_qp_offset=-2 / threads=6 / lookahead_threads=1 / sliced_threads=0 / nr=0 / decimate=1 / interlaced=0 / bluray_compat=0 / constrained_intra=0 / bframes=10 / b_pyramid=2 / b_adapt=2 / b_bias=0 / direct=1 / weightb=1 / open_gop=0 / weightp=2 / keyint=240 / keyint_min=24 / scenecut=40 / intra_refresh=0 / rc_lookahead=60 / rc=crf / mbtree=0 / crf=18.0 / qcomp=0.60 / qpmin=0 / qpmax=69 / qpstep=4 / vbv_maxrate=50000 / vbv_bufsize=62500 / crf_max=30.0 / nal_hrd=none / filler=0 / ip_ratio=1.40 / pb_ratio=1.30 / aq=3:0.90
Language : English
Default : Yes
Forced : No
Color range : Limited
Color primaries : BT.709
Transfer characteristics : BT.709
Matrix coefficients : BT.709

Audio #1
ID : 2
Format : AC-3
Format/Info : Audio Coding 3
Commercial name : Dolby Digital
Codec ID : A_AC3
Duration : 1 h 41 min
Bit rate mode : Constant
Bit rate : 384 kb/s
Channel(s) : 6 channels
Channel layout : L R C LFE Ls Rs
Sampling rate : 48.0 kHz
Frame rate : 31.250 FPS (1536 SPF)
Bit depth : 16 bits
Compression mode : Lossy
Stream size : 277 MiB (13%)
Language : Russian
Service kind : Complete Main
Default : Yes
Forced : No

Audio #2
ID : 3
Format : AC-3
Format/Info : Audio Coding 3
Commercial name : Dolby Digital
Codec ID : A_AC3
Duration : 1 h 41 min
Bit rate mode : Constant
Bit rate : 384 kb/s
Channel(s) : 6 channels
Channel layout : L R C LFE Ls Rs
Sampling rate : 48.0 kHz
Frame rate : 31.250 FPS (1536 SPF)
Bit depth : 16 bits
Compression mode : Lossy
Stream size : 277 MiB (13%)
Title : ENG_[DVD «Мост-Видео»]
Language : English
Service kind : Complete Main
Default : No
Forced : No

Text #1
ID : 4
Format : UTF-8
Codec ID : S_TEXT/UTF8
Codec ID/Info : UTF-8 Plain Text
Duration : 1 h 35 min
Bit rate : 92 b/s
Count of elements : 1343
Stream size : 64.6 KiB (0%)
Language : Russian
Default : No
Forced : No

Text #2
ID : 5
Format : UTF-8
Codec ID : S_TEXT/UTF8
Codec ID/Info : UTF-8 Plain Text
Duration : 1 h 39 min
Bit rate : 68 b/s
Count of elements : 1896
Stream size : 50.3 KiB (0%)
Language : English
Default : No
Forced : No

Menu
00:00:00.000 : en:Глава 01
00:07:30.000 : en:Глава 02
00:15:00.000 : en:Глава 03
00:22:30.000 : en:Глава 04
00:30:00.000 : en:Глава 05
00:37:30.000 : en:Глава 06
00:45:00.000 : en:Глава 07
00:52:30.000 : en:Глава 08
01:00:00.000 : en:Глава 09
01:07:30.000 : en:Глава 10
01:15:00.000 : en:Глава 11
01:22:30.000 : en:Глава 12
01:30:00.000 : en:Глава 13
01:37:30.000 : en:Глава 14



   Похожие торренты   Торрент   Размер 
В этой теме нет новых непрочитанных сообщений. Прощай, Кристофер Робин / Goodbye Christopher Robin (2017) WEB-DLRip-AVC | P | iTunes

43 | 3

1.88 ГБ

В этой теме нет новых непрочитанных сообщений. Прощай, Кристофер Робин / Goodbye Christopher Robin (2017) WEB-DLRip-AVC | P | iTunes

9 | 0

1.87 ГБ

В этой теме нет новых непрочитанных сообщений. Прощай, Кристофер Робин / Goodbye Christopher Robin (2017) WEB-DLRip от Scarabey | iTunes

89 | 7

745.21 МБ

В этой теме нет новых непрочитанных сообщений. Прощай, Кристофер Робин / Goodbye Christopher Robin (2017) WEB-DLRip от Scarabey | iTunes

7 | 4

746.19 МБ

В этой теме нет новых непрочитанных сообщений. Прощай, Кристофер Робин / Goodbye Christopher Robin (2017) WEB-DLRip от Scarabey | iTunes

289 | 19

1.45 ГБ

В этой теме нет новых непрочитанных сообщений. Прощай, Кристофер Робин / Goodbye Christopher Robin (2017) WEB-DLRip от MegaPeer | iTunes

475 | 10

1.46 ГБ

В этой теме нет новых непрочитанных сообщений. Прощай, Кристофер Робин / Goodbye Christopher Robin (2017) WEB-DLRip от MegaPeer | iTunes

55 | 3

748.62 МБ




Вы не можете начинать темы
Вы не можете отвечать на сообщения
Вы не можете редактировать свои сообщения
Вы не можете удалять свои сообщения
Вы не можете добавлять вложения

Перейти:  
 Вход
ppkBB3cker v.2 © 2008-2014 @ PPK
[ Time : 0.039s | 17 Queries | GZIP : Off ]

cron