img image001 image001 image001 image001 image001 image001 image001 image001 image001 image001 image001 image001 image001 image001 image001

Planets Sun Sun Sun
Статистика раздачи
Автор: PriZraK | Размер: 8.95 ГБ | Добавлен: 13 авг 2019
Раздают: 42    Качают: 6
Скачать торрент
Скачать торрент
Описание торрента

СообщениеДобавлено: 13 авг 2019 

Информация о фильме
Название: Испытание огнем
Оригинальное название: Trial by Fire
Год выпуска: 2018
Жанр: Драма, биография, криминал
Режиссер: Эдвард Цвик
В ролях: Лора Дерн, Джэйд Петтиджон, Джек О`Коннелл, Эмили Мид, Джефф Перри, Рода Гриффис, Эль Грэм, Крис Кой, Джейсон Дуглас, Даррен Петти, Тинсли Прайс, Карлос Гомес, Эннистон Прайс

О фильме: Фильм основан на реальных событиях. История Кэмерона Тодда Уиллингема — бедного бунтаря с криминальным прошлым из небольшого города в Техасе, которого обвинили в убийстве трех его дочерей и приговорили к смертной казни. Когда весь мир отвернулся от мужчины, на его защиту встала Элизабет Гилберт — мать двоих детей из Хьюстона, отказавшаяся признавать обвинительный приговор. В течение 12 лет она поддерживала Кэмерона, находящегося в камере смертников, изучая всю доказательную базу по его делу.



Страна: США
Студия: Flashlight Films, The Bedford Falls Company, The Domain Group
Продолжительность: 02:07:05
Перевод: Профессиональный (многоголосый закадровый) HDRezka Studio

Файл
Формат: MKV
Качество: WEB-DL 1080p
Видео: MPEG-4 AVC Video, 1920x1040 (1.85:1), 9262 Kbps, 23.976 fps
Аудио#1: Russian (AAC, 2 ch, 180 kbps, 16 bits, 48.0 KHz) - HDRezka Studio
Аудио#2: English (E-AC3, 6 ch, 640 kbps, 16 bits, 48.0 KHz) - Оригинал
Субтитры: Русские (Forced), английские

General
Unique ID : 148906775420838808607721968656809112556 (0x700666DA6EB1922FBF683BC1052EB3EC)
Complete name : G:Trial.by.Fire.2018.AMZN.WEB-DL.1080p.mkv
Format : Matroska
Format version : Version 4 / Version 2
File size : 8.95 GiB
Duration : 2 h 7 min
Overall bit rate : 10.1 Mb/s
Encoded date : UTC 2019-08-12 17:57:54
Writing application : mkvmerge v20.0.0 ('I Am The Sun') 64-bit
Writing library : libebml v1.3.5 + libmatroska v1.4.8

Video
ID : 1
Format : AVC
Format/Info : Advanced Video Codec
Format profile : High@L4
Format settings : CABAC / 4 Ref Frames
Format settings, CABAC : Yes
Format settings, RefFrames : 4 frames
Codec ID : V_MPEG4/ISO/AVC
Duration : 2 h 7 min
Bit rate mode : Constant
Bit rate : 9 262 kb/s
Nominal bit rate : 10 000 kb/s
Width : 1 920 pixels
Height : 1 040 pixels
Display aspect ratio : 1.85:1
Frame rate mode : Constant
Frame rate : 23.976 (24000/1001) FPS
Color space : YUV
Chroma subsampling : 4:2:0
Bit depth : 8 bits
Scan type : Progressive
Bits/(Pixel*Frame) : 0.193
Stream size : 8.22 GiB (92%)
Language : English
Default : Yes
Forced : No
Color range : Limited
Color primaries : BT.709
Transfer characteristics : BT.709
Matrix coefficients : BT.709

Audio #1
ID : 2
Format : AAC
Format/Info : Advanced Audio Codec
Format profile : LC
Codec ID : A_AAC-2
Duration : 2 h 7 min
Bit rate : 178 kb/s
Channel(s) : 2 channels
Channel positions : Front: L R
Sampling rate : 48.0 kHz
Frame rate : 46.875 FPS (1024 SPF)
Compression mode : Lossy
Stream size : 162 MiB (2%)
Title : MVO HDRezka Studio
Language : Russian
Default : Yes
Forced : No

Audio #2
ID : 3
Format : E-AC-3
Format/Info : Enhanced Audio Coding 3
Codec ID : A_EAC3
Duration : 2 h 7 min
Bit rate mode : Constant
Bit rate : 640 kb/s
Channel(s) : 6 channels
Channel positions : Front: L C R, Side: L R, LFE
Sampling rate : 48.0 kHz
Frame rate : 187.500 FPS (256 SPF)
Compression mode : Lossy
Stream size : 582 MiB (6%)
Language : English
Service kind : Complete Main
Default : No
Forced : No

Text #1
ID : 4
Format : UTF-8
Codec ID : S_TEXT/UTF8
Codec ID/Info : UTF-8 Plain Text
Duration : 2 h 2 min
Bit rate : 3 b/s
Count of elements : 50
Stream size : 2.82 KiB (0%)
Title : forced
Language : Russian
Default : Yes
Forced : Yes

Text #2
ID : 5
Format : UTF-8
Codec ID : S_TEXT/UTF8
Codec ID/Info : UTF-8 Plain Text
Duration : 2 h 3 min
Bit rate : 71 b/s
Count of elements : 2000
Stream size : 64.2 KiB (0%)
Language : English
Default : No
Forced : No


   Похожие торренты   Торрент   Размер 
В этой теме нет новых непрочитанных сообщений. Испытание огнем / Trial by Fire (2018) WEB-DLRip от ExKinoRay | HDRezka Studio

86 | 2

1.45 ГБ

В этой теме нет новых непрочитанных сообщений. Испытание огнем / Trial by Fire (Эдвард Цвик) [2018, драма, биография, криминал, WEBDLRip] MVO

22 | 9

1.46 ГБ

В этой теме нет новых непрочитанных сообщений. Последнее испытание / Училка: Испытание (Алексей А. Петрухин) [2018, драма, боевик, WEB-DLRip]

233 | 7

1.45 ГБ

В этой теме нет новых непрочитанных сообщений. Последнее испытание / Училка: Испытание (Алексей А. Петрухин) [2018, драма, боевик, WEB-DLRip-AVC]

52 | 4

2.04 ГБ

В этой теме нет новых непрочитанных сообщений. Код 211 / 211 (2018) BDRemux 1080p | HDrezka Studio

10 | 0

19.01 ГБ

В этой теме нет новых непрочитанных сообщений. Эшер / Asher (2018) BDRip 1080p | HDRezka Studio

92 | 7

7.77 ГБ

В этой теме нет новых непрочитанных сообщений. Догмэн / Dogman (2018) BDRip 1080p | HDRezka Studio

12 | 0

12.45 ГБ




Вы не можете начинать темы
Вы не можете отвечать на сообщения
Вы не можете редактировать свои сообщения
Вы не можете удалять свои сообщения
Вы не можете добавлять вложения

Перейти:  
 Вход
ppkBB3cker v.2 © 2008-2014 @ PPK
[ Time : 0.025s | 16 Queries | GZIP : Off ]

cron