img image001 image001 image001 image001 image001 image001 image001 image001 image001 image001 image001 image001 image001 image001 image001

Planets Sun Sun Sun
Статистика раздачи
Автор: PriZraK | Размер: 4.37 ГБ | Добавлен: 13 авг 2019
Раздают: 217    Качают: 25
Скачать торрент
Скачать торрент
Описание торрента

СообщениеДобавлено: 13 авг 2019 

Информация о фильме
Название: Человек из ниоткуда
Оригинальное название: Ajeossi / The Man from Nowhere
Год выхода: 2010
Жанр: Боевик, триллер, криминал
Режиссер: Ли Чжон Бом
В ролях: Вон Бин, Ким Сэ Рон, Ким Хе Со, Ким Хый Вон, Ким Тхэ Хун, Ким Сон О, Танайонг Вонгтракул, Сон Юн Чан, Чо Сок Хен
О фильме:
Чха Тхэ Сик - скромный владелец ломбарда. Девочка Чон Соме его соседка и дочь матери-одиночки, которая работает в баре танцовщицей и не столько увлекается воспитанием ребенка, сколько ищет острых ощущений на свою и без того повидавшую виды, неудавшуюся жизнь. И вот однажды мать Соме вместе со своим парнем решает обокрасть наркокурьера, который регулярно появляется в заведении, где она выступает…


Выпущено: Южная Корея / Cinema Service, Opus Pictures, United Pictures
Продолжительность: 01:59:18
Перевод: Авторский (одноголосый закадровый), профессиональный (двухголосый закадровый)

Файл
Кодек: MPEG-4 AVC
Качество: BDRip 720p
Видео: AVC, 1280x546 (2.35:1), 23.976 fps, 3965 kbps
Аудио #1: AC3, 48 kHz, 6 ch, 448 kbps - AVO Е.Гаевский
Аудио #2: AC3, 48 kHz, 6 ch, 448 kbps - AVO Ю.Сербин
Аудио #3: AC3, 48 kHz, 6 ch, 384 kbps - DVO НТВ
Субтитры: Russian, English

Релиз от: &

x264 [info]: frame I:1406 Avg QP:16.43 size: 97156 PSNR Mean Y:46.54 U:48.74 V:49.96 Avg:47.26 Global:46.30
x264 [info]: frame P:38274 Avg QP:19.27 size: 41196 PSNR Mean Y:44.84 U:47.18 V:48.94 Avg:45.62 Global:44.51
x264 [info]: frame B:131977 Avg QP:21.25 size: 13880 PSNR Mean Y:44.02 U:46.29 V:48.65 Avg:44.83 Global:43.58

Полное имя : D:ФИЛЬМЫЧеловек из ниоткуда.2010 (Ю.Корея).mkv
Формат : Matroska
Версия формата : Version 2
Размер файла : 4,37 Гбайт
Продолжительность : 1 ч. 59 м.
Общий поток : 5243 Кбит/сек
Дата кодирования : UTC 2019-08-13 02:24:32
Программа кодирования : mkvmerge v5.3.0 ('I could have danced') built on Feb 9 2012 10:38:07
Библиотека кодирования : libebml v1.2.3 + libmatroska v1.3.0
Обложка : Yes
Attachments : cover (2).jpg

Видео
Идентификатор : 1
Формат : AVC
Формат/Информация : Advanced Video Codec
Профиль формата : High@L4.1
Настройки формата : CABAC / 11 Ref Frames
Параметр CABAC формата : Да
Параметр RefFrames формата : 11 кадров
Идентификатор кодека : V_MPEG4/ISO/AVC
Продолжительность : 1 ч. 59 м.
Битрейт : 3965 Кбит/сек
Ширина : 1280 пикселей
Высота : 546 пикселей
Соотношение сторон : 2,35:1
Режим частоты кадров : Постоянный
Частота кадров : 23,976 (24000/1001) кадра/сек
Цветовое пространство : YUV
Субдискретизация насыщенности : 4:2:0
Битовая глубина : 8 бит
Тип развёртки : Прогрессивная
Бит/(Пиксели*Кадры) : 0.237
Размер потока : 3,22 Гбайт (74%)
Библиотека кодирования : x264 core 157 r2945 72db437
Настройки программы : cabac=1 / ref=11 / deblock=1:-3:-3 / analyse=0x3:0x133 / me=umh / subme=11 / psy=1 / psy_rd=1.00:0.15 / mixed_ref=1 / me_range=32 / chroma_me=1 / trellis=2 / 8x8dct=1 / cqm=0 / deadzone=21,11 / fast_pskip=0 / chroma_qp_offset=-3 / threads=12 / lookahead_threads=3 / sliced_threads=0 / nr=0 / decimate=0 / interlaced=0 / bluray_compat=0 / constrained_intra=0 / bframes=12 / b_pyramid=2 / b_adapt=2 / b_bias=0 / direct=3 / weightb=1 / open_gop=0 / weightp=2 / keyint=240 / keyint_min=23 / scenecut=40 / intra_refresh=0 / rc=2pass / mbtree=0 / bitrate=3965 / ratetol=1.0 / qcomp=0.75 / qpmin=0 / qpmax=69 / qpstep=4 / cplxblur=20.0 / qblur=0.5 / ip_ratio=1.30 / pb_ratio=1.30 / aq=3:0.90
Язык : English
Default : Да
Forced : Нет
Цветовой диапазон : Limited
Основные цвета : BT.709
Характеристики трансфера : BT.709
Коэффициенты матрицы : BT.709

Аудио #1
Идентификатор : 2
Формат : AC-3
Формат/Информация : Audio Coding 3
Коммерческое название : Dolby Digital
Идентификатор кодека : A_AC3
Продолжительность : 1 ч. 59 м.
Вид битрейта : Постоянный
Битрейт : 448 Кбит/сек
Каналы : 6 каналов
ChannelLayout : L R C LFE Ls Rs
Частота : 48,0 КГц
Частота кадров : 31,250 кадров/сек (1536 SPF)
Битовая глубина : 16 бит
Метод сжатия : С потерями
Размер потока : 382 Мбайт (9%)
Заголовок : AVO Е.Гаевский
Язык : Russian
ServiceKind/String : Complete Main
Default : Да
Forced : Нет

Аудио #2
Идентификатор : 3
Формат : AC-3
Формат/Информация : Audio Coding 3
Коммерческое название : Dolby Digital
Идентификатор кодека : A_AC3
Продолжительность : 1 ч. 59 м.
Вид битрейта : Постоянный
Битрейт : 448 Кбит/сек
Каналы : 6 каналов
ChannelLayout : L R C LFE Ls Rs
Частота : 48,0 КГц
Частота кадров : 31,250 кадров/сек (1536 SPF)
Битовая глубина : 16 бит
Метод сжатия : С потерями
Размер потока : 382 Мбайт (9%)
Заголовок : AVO Ю.Сербин
Язык : Russian
ServiceKind/String : Complete Main
Default : Нет
Forced : Нет

Аудио #3
Идентификатор : 4
Формат : AC-3
Формат/Информация : Audio Coding 3
Коммерческое название : Dolby Digital
Идентификатор кодека : A_AC3
Продолжительность : 1 ч. 59 м.
Вид битрейта : Постоянный
Битрейт : 384 Кбит/сек
Каналы : 6 каналов
ChannelLayout : L R C LFE Ls Rs
Частота : 48,0 КГц
Частота кадров : 31,250 кадров/сек (1536 SPF)
Битовая глубина : 16 бит
Метод сжатия : С потерями
Размер потока : 328 Мбайт (7%)
Заголовок : DVO НТВ
Язык : Russian
ServiceKind/String : Complete Main
Default : Нет
Forced : Нет

Текст #1
Идентификатор : 5
Формат : UTF-8
Идентификатор кодека : S_TEXT/UTF8
Идентификатор кодека/Информация : UTF-8 Plain Text
Язык : Russian
Default : Нет
Forced : Нет

Текст #2
Идентификатор : 6
Формат : UTF-8
Идентификатор кодека : S_TEXT/UTF8
Идентификатор кодека/Информация : UTF-8 Plain Text
Язык : English
Default : Нет
Forced : Нет




   Похожие торренты   Торрент   Размер 
В этой теме нет новых непрочитанных сообщений. Человек из ниоткуда / Ajeossi (2010) HDRip от Scarabey | P

66 | 4

1.45 ГБ

В этой теме нет новых непрочитанных сообщений. Человек из ниоткуда / Ajeossi (2010) BDRemux 1080p | А, L1, Р2

1 | 4

30.29 ГБ

В этой теме нет новых непрочитанных сообщений. Человек из ниоткуда / Ajeossi / The Man From Nowhere (2010) | BDRemux 1080р | A, L1, P2

24 | 10

30.16 ГБ

В этой теме нет новых непрочитанных сообщений. Человек из ниоткуда / The Man From Nowhere / Ajusshi (2010) BDRip от Alex 007

86 | 8

2.19 ГБ

В этой теме нет новых непрочитанных сообщений. Человек из ниоткуда / The Man From Nowhere / Ajusshi (2010) BDRip от HQ-ViDEO

155 | 9

2.19 ГБ

В этой теме нет новых непрочитанных сообщений. Человек ниоткуда (2010) DVDRip-AVC от ExKinoRay

7 | 1

1.51 ГБ

В этой теме нет новых непрочитанных сообщений. Человек ниоткуда (1961) DVDRip-AVC от New-Team

4 | 0

1.09 ГБ




Вы не можете начинать темы
Вы не можете отвечать на сообщения
Вы не можете редактировать свои сообщения
Вы не можете удалять свои сообщения
Вы не можете добавлять вложения

Перейти:  
 Вход
ppkBB3cker v.2 © 2008-2014 @ PPK
[ Time : 0.030s | 16 Queries | GZIP : Off ]

cron