img image001 image001 image001 image001 image001 image001 image001 image001 image001 image001 image001 image001 image001 image001 image001

Planets Sun Sun Sun
Статистика раздачи
Автор: PriZraK | Размер: 5.39 ГБ | Добавлен: 13 авг 2019
Раздают: 8    Качают: 1
Скачать торрент
Скачать торрент
Описание торрента

СообщениеДобавлено: 13 авг 2019 

Название: Лавка ужасов
Оригинальное название: Little Shop of Horrors
Год выпуска: 1986
Жанр: Мюзикл, комедия
Выпущено: США, The Geffen Company
Режиссер: Фрэнк Оз
В ролях: Рик Моранис, Эллен Грин, Винсент Гардения, Стив Мартин, Тичина Арнольд, Мишель Викс, Тиша Кэмпбелл, Леви Стаббс, Джеймс Белуши, Джон Кэнди, Кристофер Гест, Билл Мюррэй, Стэн Джонс, Бертис Ридинг, Эд Уайли, Алан Тилверн, Джон Скотт Мартин, Винсент Вонг, Дэнни Каннингэм, Дэнни Джон-Джулс, Гари Палмер, Пол Суоби, Милдред Шоу, Кевин Скотт, Келли Хантли, Пол Рейнольдс, Мириам Марголис, Фрэнк Дюкс, Питер Уитман, Хезер Хенсон, Джудит Морс, Боб Шерман, Керри Шейл, Роберт Арден, Боб Сессионс, Майкл Шеннон

О фильме: В цветочном магазине выставили странное растение — зловещий цветок, с появлением которого и началась эта история. Цветок не нуждался в обычном уходе, в поливке, в солнечном свете, потому что, по природе своей, он… людоед. И каждый вечер он ждёт новую жертву к себе на ужин. Эта знаменитая, прогремевшая на всю Америку, картина — великолепный мюзикл, забавный и страшный одновременно, с участием монстра — цветка и известнейших американских комиков.

Качество: BDRip 720p
Размер: 5.39 ГБ
Продолжительность: 01:33:54

Видео: MPEG-4 AVC, 6651 Кбит/сек, 1280x720
Аудио 1: русский, 48 kHz, AC3, 2 ch, 192 kbps avg, [Профессиональный многоголосый]
Аудио 2: русский, 48 kHz, AC3, 6 ch, 384 kbps avg, [Авторский, Антон Алексеев]
Аудио 3: русский, 48 kHz, AC3, 2 ch, 192 kbps avg, [Авторский, Алексей Михалёв]
Аудио 4: английский, 48 kHz, AC3, 6 ch, 448 kbps avg, [Оригинал]
Аудио 5: английский, 48 kHz, AC3, 2 ch, 192 kbps avg, [Комментарий]
Субтитры: английские

Имеются неименованные главы/чаптеры

Сравнение с исходником



Британская академия, 1988 год
Номинации (1):
Лучшие визуальные эффекты

Оскар, 1987 год
Номинации (2):
Лучшие визуальные эффекты
Лучшая песня — «Mean Green Mother from Outer Space»

Золотой глобус, 1987 год
Номинации (2):
Лучший фильм (комедия или мюзикл)
Лучший саундтрек

Сатурн, 1987 год
Победитель (1):
Лучшая музыка

Номинации (4):
Лучший фильм ужасов
Лучший сценарий
Лучшие костюмы
Лучшие спецэффекты
Ybr

Это чудо, а не фильм. Поражён до глубины души - как в далёком 1986 году возможно с помощью только лишь грима и прочих трюков, без всякой графики, добиться такой мимики цветка. Он разговаривает как живой.
Очень понравился вступительный клип, игра актёров тоже очень хороша, особенно Рика Мораниса. Вообще, фильм — настоящий шедевр. Не понятно, почему он так мало заработал в кинотеатрах (или тогда это было много?).

Кинопоиск
Общее
Уникальный идентификатор : 249108323924834174155405036546512499155 (0xBB68849E8D0A5F10A3B07D2E2039B1D3)
Полное имя : E:VideoLavka.ugasov.TheaCut.1986.x264.BDRip.720p.mkv
Формат : Matroska
Версия формата : Version 4 / Version 2
Размер файла : 5,39 Гбайт
Продолжительность : 1 ч. 33 м.
Общий поток : 8223 Кбит/сек
Название фильма : Лавка ужасов (Театральная версия) / Little Shop of Horrors (TheaterCut) / 1986 / BDRip -- STarankov
Дата кодирования : UTC 2013-09-27 14:39:57
Программа кодирования : mkvmerge v6.4.1 ('Omega Point') built on Sep 16 2013 22:05:10
Библиотека кодирования : libebml v1.3.0 + libmatroska v1.4.1

Видео
Идентификатор : 1
Формат : AVC
Формат/Информация : Advanced Video Codec
Профиль формата : High@L4.1
Параметр CABAC формата : Да
Параметр ReFrames формата : 9 кадров
Идентификатор кодека : V_MPEG4/ISO/AVC
Продолжительность : 1 ч. 33 м.
Битрейт : 6651 Кбит/сек
Ширина : 1280 пикселей
Высота : 720 пикселей
Соотношение сторон : 16:9
Режим частоты кадров : Постоянный
Частота кадров : 23,976 кадра/сек
Цветовое пространство : YUV
Субдискретизация насыщенности : 4:2:0
Битовая глубина : 8 бит
Тип развёртки : Прогрессивная
Бит/(Пиксели*Кадры) : 0.301
Размер потока : 4,36 Гбайт (81%)
Библиотека кодирования : x264 core 138 r2358 9e941d1
Настройки программы : cabac=1 / ref=9 / deblock=1:-2:-2 / analyse=0x3:0x113 / me=umh / subme=10 / psy=1 / psy_rd=1.00:0.15 / mixed_ref=1 / me_range=24 / chroma_me=1 / trellis=2 / 8x8dct=1 / cqm=0 / deadzone=21,11 / fast_pskip=0 / chroma_qp_offset=-3 / threads=6 / lookahead_threads=1 / sliced_threads=0 / nr=0 / decimate=1 / interlaced=0 / bluray_compat=0 / constrained_intra=0 / bframes=8 / b_pyramid=2 / b_adapt=2 / b_bias=0 / direct=1 / weightb=1 / open_gop=0 / weightp=2 / keyint=230 / keyint_min=23 / scenecut=40 / intra_refresh=0 / rc_lookahead=40 / rc=crf / mbtree=0 / crf=19.0 / qcomp=0.60 / qpmin=0 / qpmax=69 / qpstep=4 / vbv_maxrate=50000 / vbv_bufsize=62500 / crf_max=0.0 / nal_hrd=none / ip_ratio=1.40 / pb_ratio=1.30 / aq=1:1.00
Язык : English
Default : Да
Forced : Нет

Аудио #1
Идентификатор : 2
Формат : AC-3
Формат/Информация : Audio Coding 3
Расширение режима : CM (complete main)
Параметр Endianness формата : Big
Идентификатор кодека : A_AC3
Продолжительность : 1 ч. 33 м.
Вид битрейта : Постоянный
Битрейт : 192 Кбит/сек
Каналы : 2 канала
Расположение каналов : Front: L R
Частота : 44,1 КГц
Битовая глубина : 16 бит
Метод сжатия : С потерями
Размер потока : 129 Мбайт (2%)
Заголовок : MVO
Язык : Russian
Default : Да
Forced : Нет

Аудио #2
Идентификатор : 3
Формат : AC-3
Формат/Информация : Audio Coding 3
Расширение режима : CM (complete main)
Параметр Endianness формата : Big
Идентификатор кодека : A_AC3
Продолжительность : 1 ч. 33 м.
Вид битрейта : Постоянный
Битрейт : 384 Кбит/сек
Каналы : 6 каналов
Расположение каналов : Front: L C R, Side: L R, LFE
Частота : 48,0 КГц
Битовая глубина : 16 бит
Метод сжатия : С потерями
Размер потока : 258 Мбайт (5%)
Заголовок : AVO (Антон Алексеев)
Язык : Russian
Default : Нет
Forced : Нет

Аудио #3
Идентификатор : 4
Формат : AC-3
Формат/Информация : Audio Coding 3
Расширение режима : CM (complete main)
Параметр Endianness формата : Big
Идентификатор кодека : A_AC3
Продолжительность : 1 ч. 33 м.
Вид битрейта : Постоянный
Битрейт : 192 Кбит/сек
Каналы : 2 канала
Расположение каналов : Front: L R
Частота : 48,0 КГц
Битовая глубина : 16 бит
Метод сжатия : С потерями
Размер потока : 129 Мбайт (2%)
Заголовок : AVO (Алексей Михалёв)
Язык : Russian
Default : Нет
Forced : Нет

Аудио #4
Идентификатор : 5
Формат : AC-3
Формат/Информация : Audio Coding 3
Расширение режима : CM (complete main)
Параметр Endianness формата : Big
Идентификатор кодека : A_AC3
Продолжительность : 1 ч. 33 м.
Вид битрейта : Постоянный
Битрейт : 448 Кбит/сек
Каналы : 6 каналов
Расположение каналов : Front: L C R, Side: L R, LFE
Частота : 48,0 КГц
Битовая глубина : 16 бит
Метод сжатия : С потерями
Размер потока : 301 Мбайт (5%)
Заголовок : Original
Язык : English
Default : Нет
Forced : Нет

Аудио #5
Идентификатор : 6
Формат : AC-3
Формат/Информация : Audio Coding 3
Профиль формата : Dolby Digital
Расширение режима : CM (complete main)
Параметр Endianness формата : Big
Идентификатор кодека : A_AC3
Продолжительность : 1 ч. 33 м.
Вид битрейта : Постоянный
Битрейт : 192 Кбит/сек
Каналы : 2 канала
Расположение каналов : Front: L R
Частота : 48,0 КГц
Битовая глубина : 16 бит
Метод сжатия : С потерями
Размер потока : 129 Мбайт (2%)
Заголовок : Commentary
Язык : English
Default : Нет
Forced : Нет

Текст
Идентификатор : 7
Формат : UTF-8
Идентификатор кодека : S_TEXT/UTF8
Идентификатор кодека/Информация : UTF-8 Plain Text
Заголовок : английский
Язык : English
Default : Нет
Forced : Нет

Меню
00:00:00.000 : en:00:00:00.000
00:06:09.869 : en:00:06:09.869
00:10:36.678 : en:00:10:36.678
00:12:44.806 : en:00:12:44.806
00:14:05.053 : en:00:14:05.053
00:16:15.474 : en:00:16:15.474
00:20:59.425 : en:00:20:59.425
00:24:57.663 : en:00:24:57.663
00:29:22.761 : en:00:29:22.761
00:30:58.482 : en:00:30:58.482
00:33:12.782 : en:00:33:12.782
00:35:45.518 : en:00:35:45.518
00:38:59.754 : en:00:38:59.754
00:44:55.443 : en:00:44:55.443
00:52:34.234 : en:00:52:34.234
00:58:28.588 : en:00:58:28.588
01:02:44.928 : en:01:02:44.928
01:06:47.837 : en:01:06:47.837
01:10:49.620 : en:01:10:49.620
01:19:58.335 : en:01:19:58.335
01:27:28.034 : en:01:27:28.034

---[Information] [27.09.2013 10:03:49] avs [info]: 1280x720p 1:1 @ 24000/1001 fps (cfr)
---[Information] [27.09.2013 10:03:49] x264 [info]: using SAR=1/1
---[Information] [27.09.2013 10:03:49] x264 [info]: using cpu capabilities: MMX2 SSE2Fast SSSE3 SSE4.2
---[Information] [27.09.2013 10:03:49] x264 [info]: profile High, level 4.1
---[Information] [27.09.2013 21:27:50] x264 [info]: frame I:995 Avg QP:18.17 size:114950
---[Information] [27.09.2013 21:27:51] x264 [info]: frame P:25120 Avg QP:19.49 size: 61906
---[Information] [27.09.2013 21:27:51] x264 [info]: frame B:108982 Avg QP:21.88 size: 28709
---[Information] [27.09.2013 21:27:51] x264 [info]: consecutive B-frames: 1.1% 0.8% 2.5% 15.6% 17.1% 40.2% 11.0% 6.1% 5.6%
---[Information] [27.09.2013 21:27:51] x264 [info]: mb I I16..4: 7.2% 81.6% 11.2%
---[Information] [27.09.2013 21:27:51] x264 [info]: mb P I16..4: 0.9% 24.5% 1.3% P16..4: 31.2% 24.6% 12.1% 0.0% 0.0% skip: 5.4%
---[Information] [27.09.2013 21:27:51] x264 [info]: mb B I16..4: 0.1% 4.7% 0.1% B16..8: 39.3% 14.6% 4.3% direct: 9.9% skip:27.0% L0:45.9% L1:40.9% BI:13.2%
---[Information] [27.09.2013 21:27:51] x264 [info]: 8x8 transform intra:92.5% inter:61.1%
---[Information] [27.09.2013 21:27:51] x264 [info]: coded y,uvDC,uvAC intra: 95.7% 93.3% 80.9% inter: 41.9% 32.3% 10.9%
---[Information] [27.09.2013 21:27:51] x264 [info]: i16 v,h,dc,p: 64% 7% 12% 17%
---[Information] [27.09.2013 21:27:51] x264 [info]: i8 v,h,dc,ddl,ddr,vr,hd,vl,hu: 9% 7% 12% 10% 13% 12% 12% 12% 13%
---[Information] [27.09.2013 21:27:51] x264 [info]: i4 v,h,dc,ddl,ddr,vr,hd,vl,hu: 9% 6% 3% 9% 16% 16% 14% 12% 13%
---[Information] [27.09.2013 21:27:51] x264 [info]: i8c dc,h,v,p: 58% 13% 12% 16%
---[Information] [27.09.2013 21:27:51] x264 [info]: Weighted P-Frames: Y:7.7% UV:4.2%
---[Information] [27.09.2013 21:27:51] x264 [info]: ref P L0: 38.1% 10.2% 21.2% 7.9% 7.5% 4.7% 4.8% 2.5% 2.8% 0.3% 0.0%
---[Information] [27.09.2013 21:27:51] x264 [info]: ref B L0: 64.5% 15.1% 7.8% 4.6% 3.3% 2.8% 1.4% 0.5%
---[Information] [27.09.2013 21:27:51] x264 [info]: ref B L1: 91.0% 9.0%
---[Information] [27.09.2013 21:27:51] x264 [info]: kb/s:6812.44
---[Information] [27.09.2013 21:27:51] encoded 135097 frames, 3.29 fps, 6812.44 kb/s
--[Information] [27.09.2013 21:27:52] Final statistics
---[Information] [27.09.2013 21:27:52] Constant Quality Mode: Quality 19 computed...
---[Information] [27.09.2013 21:27:52] Video Bitrate Obtained (approximate): 6814 kbit/s
--[Information] [27.09.2013 21:27:52] MediaInfo
---[Information] File: E:RipLavka.ugasov.1986.x264.BDRipLavka.ugasov.1986.x264.BDRip.720p.mkv



   Похожие торренты   Торрент   Размер 
В этой теме нет новых непрочитанных сообщений. Маленький магазинчик ужасов / The Little Shop of Horrors (1960) BDRip 720p от Leonardo and Scarabey | P2

8 | 5

2.38 ГБ

В этой теме нет новых непрочитанных сообщений. Дом ужасов доктора Террора / Dr. Terror's House of Horrors (1965) BDRip от ExKinoRay | P2

21 | 8

1.46 ГБ

В этой теме нет новых непрочитанных сообщений. Галактика ужасов / Galaxy of Horrors (2017) WEB-DLRip | L1

113 | 10

1.45 ГБ

В этой теме нет новых непрочитанных сообщений. Галактика ужасов / Galaxy of Horrors (2017) WEB-DLRip | L

79 | 1

1.37 ГБ

В этой теме нет новых непрочитанных сообщений. Дом ужасов доктора Террора / Dr. Terror's House of Horrors (1965) BDRemux 1080p | P2

3 | 0

16.04 ГБ

В этой теме нет новых непрочитанных сообщений. Комедия ужасов / The Comedy of Terrors (1963) BDRip 720p | P2

17 | 2

2.26 ГБ

В этой теме нет новых непрочитанных сообщений. Последний фильм ужасов / The Last Horror Film (1982) BDRip 720p | A

16 | 6

5.68 ГБ




Вы не можете начинать темы
Вы не можете отвечать на сообщения
Вы не можете редактировать свои сообщения
Вы не можете удалять свои сообщения
Вы не можете добавлять вложения

Перейти:  
 Вход
ppkBB3cker v.2 © 2008-2014 @ PPK
[ Time : 0.035s | 16 Queries | GZIP : Off ]

cron