img image001 image001 image001 image001 image001 image001 image001 image001 image001 image001 image001 image001 image001 image001 image001

Planets Sun Sun Sun
Статистика раздачи
Автор: PriZraK | Размер: 10.18 ГБ | Добавлен: 13 авг 2019
Раздают: 0    Качают: 0
Скачать торрент
Скачать торрент
Описание торрента

СообщениеДобавлено: 13 авг 2019 

Название: Великолепная Анжелика
Оригинальное название: Merveilleuse Angelique
Год выхода: 1965
Производство: Франция, Италия, Германия (ФРГ), CICC, Films Borderie, Fono Roma, Francos Films, Gloria-Film GmbH, Société Nouvelle Prodis
Жанр: Приключения, мелодрама, экранизация, история
Продолжительность: 01:40:04

Режиссер: Бернар Бордери
В ролях: Мишель Мерсье, Клод Жиро, Жан Рошфор, Жан-Луи Трентиньян, Джулиано Джемма, Клер Морье, Эрнст Шрёдер, Шарль Ренье, Жак Тожа, Франсуа Мэстр

Описание: После того как ее мужа сжигают на костре, Анжелика находит убежище у разбойников, глава которых — друг её детства Николя. Во время нападения другой банды, Николя вынужден пожертвовать собой, чтобы позволить Анжелике бежать. Судьба вновь благосклонна к ней — Анжелике удаётся выйти замуж за маркиза де Плесси-Бельера. Она решает проникнуть в Версаль и отомстить королю — убийце мужа…

Качество: BDRip-HEVC 1080i
Видео: HEVC/H.265, 1920x816, ~14.4 Mb/s, 10 bit
Аудио 01: Русский, AC3, 2 ch, 192 Kbps, Профессиональный многоголосый (НТВ)


General
Unique ID : 210978134523930547923129267820186640919 (0x9EB8E922EB0FF24B45118B8F56892217)
Complete name : D:DownloadMerveilleuse Angelique Великолепная Анжелика 1965.mkv
Format : Matroska
Format version : Version 4
File size : 10.2 GiB
Duration : 1 h 40 min
Overall bit rate : 14.6 Mb/s
Movie name : Великолепная Анжелика / Merveilleuse Angelique (1965) рип от NoMaD
Encoded date : UTC 2019-08-13 04:34:19
Writing application : mkvmerge v36.0.0 ('Is That Jazz?') 64-bit
Writing library : libebml v1.3.9 + libmatroska v1.5.2 / Lavf57.71.100
Attachments : Poster.jpg
ENCODING_INFO : MATROSKA,WEBM > MKV / H264 > X265 CRF 21.0 Пользовательский

Video
ID : 1
Format : HEVC
Format/Info : High Efficiency Video Coding
Format profile : Main 10@L4.1@High
Codec ID : V_MPEGH/ISO/HEVC
Duration : 1 h 40 min
Bit rate : 14.4 Mb/s
Width : 1 920 pixels
Height : 816 pixels
Display aspect ratio : 2.35:1
Frame rate mode : Constant
Frame rate : 25.000 FPS
Color space : YUV
Chroma subsampling : 4:2:0
Bit depth : 10 bits
Bits/(Pixel*Frame) : 0.367
Stream size : 10.0 GiB (99%)
Title : Merveilleuse Angelique
Writing library : x265 3.1+7-147fb92c5ed5:[Windows][clang 8.0.0][64 bit] 10bit
Encoding settings : cpuid=1111039 / frame-threads=9 / wpp / no-pmode / no-pme / no-psnr / no-ssim / log-level=3 / input-csp=1 / input-res=1920x816 / interlace=1 / total-frames=0 / level-idc=41 / high-tier=1 / uhd-bd=0 / ref=5 / allow-non-conformance / no-repeat-headers / annexb / no-aud / no-hrd / info / hash=0 / no-temporal-layers / open-gop / min-keyint=23 / keyint=240 / gop-lookahead=0 / bframes=12 / b-adapt=2 / b-pyramid / bframe-bias=0 / rc-lookahead=40 / lookahead-slices=5 / scenecut=40 / radl=0 / no-splice / no-intra-refresh / ctu=64 / min-cu-size=8 / no-rect / no-amp / max-tu-size=32 / tu-inter-depth=4 / tu-intra-depth=4 / limit-tu=0 / rdoq-level=2 / dynamic-rd=0.00 / no-ssim-rd / signhide / no-tskip / nr-intra=0 / nr-inter=0 / no-constrained-intra / strong-intra-smoothing / max-merge=3 / limit-refs=1 / no-limit-modes / me=3 / subme=7 / merange=57 / temporal-mvp / no-hme / weightp / weightb / no-analyze-src-pics / deblock=-3:-3 / no-sao / no-sao-non-deblock / rd=6 / early-skip / rskip / no-fast-intra / no-tskip-fast / no-cu-lossless / b-intra / no-splitrd-skip / rdpenalty=0 / psy-rd=2.00 / psy-rdoq=0.00 / no-rd-refine / no-lossless / cbqpoffs=0 / crqpoffs=0 / rc=crf / crf=21.0 / qcomp=0.65 / qpstep=4 / stats-write=0 / stats-read=0 / vbv-maxrate=50000 / vbv-bufsize=50000 / vbv-init=0.9 / crf-max=0.0 / crf-min=0.0 / ipratio=1.40 / pbratio=1.30 / aq-mode=2 / aq-strength=1.00 / cutree / zone-count=0 / no-strict-cbr / qg-size=32 / no-rc-grain / qpmax=69 / qpmin=0 / no-const-vbv / sar=1 / overscan=0 / videoformat=5 / range=0 / colorprim=1 / transfer=1 / colormatrix=1 / chromaloc=0 / display-window=0cll=0,0 / min-luma=0 / max-luma=1023 / log2-max-poc-lsb=8 / vui-timing-info / vui-hrd-info / slices=1 / no-opt-qp-pps / no-opt-ref-list-length-pps / no-multi-pass-opt-rps / scenecut-bias=0.05 / no-opt-cu-delta-qp / no-aq-motion / no-hdr / no-hdr-opt / no-dhdr10-opt / no-idr-recovery-sei / analysis-reuse-level=5 / scale-factor=0 / refine-intra=0 / refine-inter=0 / refine-mv=0 / refine-ctu-distortion=0 / no-limit-sao / ctu-info=0 / no-lowpass-dct / refine-analysis-type=64054016 / copy-pic=1 / max-ausize-factor=1.0 / no-dynamic-refine / no-single-sei / no-hevc-aq / no-svt / no-field / qp-adaptation-range=1.00
Language : French
Default : Yes
Forced : No
Color range : Limited
Color primaries : BT.709
Transfer characteristics : BT.709
Matrix coefficients : BT.709

Audio
ID : 2
Format : AC-3
Format/Info : Audio Coding 3
Commercial name : Dolby Digital
Codec ID : A_AC3
Duration : 1 h 40 min
Bit rate mode : Constant
Bit rate : 192 kb/s
Channel(s) : 2 channels
Channel layout : L R
Sampling rate : 48.0 kHz
Frame rate : 31.250 FPS (1536 SPF)
Bit depth : 16 bits
Compression mode : Lossy
Stream size : 137 MiB (1%)
Title : MVO (НТВ)
Language : Russian
Service kind : Complete Main
Default : Yes
Forced : No




Релиз от: NoMaD



   Похожие торренты   Торрент   Размер 
В этой теме нет новых непрочитанных сообщений. Анжелика, маркиза ангелов / Angélique, marquise des anges (1964) BDRip-HEVC 1080p | D, P, A

6 | 0

7.37 ГБ

В этой теме нет новых непрочитанных сообщений. Анжелика: Коллекция / Angelique: Collection (1964-1968) BDRip 720p

36 | 13

26.33 ГБ

В этой теме нет новых непрочитанных сообщений. Анжелика, маркиза ангелов / Angélique, marquise des anges (2013) BDRip-AVC | iTunes

120 | 10

2.43 ГБ

В этой теме нет новых непрочитанных сообщений. Анжелика, маркиза ангелов / Angelique, marquise des anges (2013) BDRip 720p | GER Transfer

197 | 18

3.38 ГБ

В этой теме нет новых непрочитанных сообщений. Анжелика, маркиза ангелов / Angélique, marquise des anges (2013) BDRip 720p от Leonardo and Scarabey | GER Transfer | Лицензия

235 | 29

2.74 ГБ

В этой теме нет новых непрочитанных сообщений. Великолепная семерка / The Magnificent Seven (2016) BDRip HEVC 720p | Лицензия

21 | 1

3.65 ГБ

В этой теме нет новых непрочитанных сообщений. Великолепная семерка / The Magnificent Seven (2016) BDRip HEVC 1080p | Лицензия

18 | 1

9.6 ГБ




Вы не можете начинать темы
Вы не можете отвечать на сообщения
Вы не можете редактировать свои сообщения
Вы не можете удалять свои сообщения
Вы не можете добавлять вложения

Перейти:  
 Вход
ppkBB3cker v.2 © 2008-2014 @ PPK
[ Time : 0.031s | 16 Queries | GZIP : Off ]

cron