img image001 image001 image001 image001 image001 image001 image001 image001 image001 image001 image001 image001 image001 image001 image001

Planets Sun Sun Sun
Статистика раздачи
Автор: PriZraK | Размер: 3.55 ГБ | Добавлен: 13 авг 2019
Раздают: 22    Качают: 4
Скачать торрент
Скачать торрент
Описание торрента

СообщениеДобавлено: 13 авг 2019 




Информация о фильме
Название: Ничего не вижу, ничего не слышу
Оригинальное название: See No Evil, Hear No Evil
Год выхода: 1989
Жанр: Комедия, криминал
Режиссер: Артур Хиллер

В ролях: Ричард Прайор, Джин Уайлдер, Джоан Северанс, Кевин Спейси, Алан Норт, Энтони Зерби, Луис Гьямбалво, Керстен Чайлдз, Харди Роулз, Одри Дж. Нинан

О фильме:
Прямо на глазах у Дэйва совершается убийство, но он глухой. А Уолли все слышал, но он слеп. Вдвоем они — просто идеальные свидетели преступления для преступников, а для полицейских – единственные подозреваемые. И те и другие так просто их не отпустят, они отправляются на поиски неуловимой парочки. Но вдвоем, даже, несмотря на свои не совсем полноценные способности, им удается обхитрить своих преследователей. В конце концов, глухой со слепым решают вершить правосудие сами …


Страна: США
Студия: TriStar Pictures
Продолжительность: 01:42:04
Перевод: Профессиональный (многоголосый, закадровый) + Авторский (одноголосый закадровый)

Файл
Формат: Matroska
Качество: BDRip-AVC [BDRemux 1080p]
Видео: 1034x560 at 23.976 fps, x264, ~3887 kbps (0.280 bit/pixel)
Аудио #1: AC-3, 48.0 KHz, 2 ch, 224 Kbps - [Русский] - MVO, Видеосервис
Аудио #2: AC-3, 48.0 KHz, 2 ch, 192 Kbps - [Русский] - MVO, ОРТ
Аудио #3: AC-3, 48.0 KHz, 2 ch, 224 Kbps - [Русский] - AVO, А.Михалёв
Аудио #4: AC-3, 48.0 KHz, 2 ch, 224 Kbps - (Украинский) - MVO, Новий канал
Аудио #5: AC-3, 48.0 KHz, 2 ch, 224 Kbps - (Английский) - оригинал
Субтитры: Русские, Английские

***Релиз от: -=DoMiNo=-

General
Unique ID : 44315048151599414859464710675382843439 (0x2156C48FFF1CEBB9C5532AA0EBD2B82F)
Complete name : Ничего не вижу, ничего не слышу_(1989)_BDRIP-AVC_[-=DoMiNo=-].mkv
Format : Matroska
Format version : Version 4
File size : 3.55 GiB
Duration : 1 h 42 min
Overall bit rate : 4 978 kb/s
Movie name : Ничего не вижу, ничего не слышу
Deion : На глазах Дэйва совершается убийство, но он глухой. Уолли все слышал, но он слепой. Вместе они — идеальные свидетели преступления… для самих преступников и единственные подозреваемые для полицейских. И те и другие начинают поиски неуловимой парочки. Но вдвоем они оказываются хитрее своих преследователей. В конце концов, слепой с глухим решают сами вершить правосудие…
Encoded date : UTC 2019-01-25 06:51:59
Attachments : poster.jpg / backdrop.jpg
ACTORS : Richard Pryor, Gene Wilder, Joan Severance, Kevin Spacey, Alan North, Lauren Tom, John Capodice, Alexandra Neil, Tonya Pinkins, Anthony Zerbe, Kirsten Childs, Hardy Rawls, Louis Giambalvo, Audrie Neenan, George Bartenieff, Bernie McInerney, Keith Langsdale, Jamie De Roy, Mary Kay Adams, Alan Pottinger, Lisby Larson, Doug Yasuda, James Pyduck, Edward James Hyland, John Ring, George Buck, George Harris, Zach Grenier, Alice Spivak, Shiek Mahmud-Bey, Joel Swetow, Pirie MacDonald, Tom Kubiak
COUNTRY : United States
DATE : 1989-05-12
DIRECTOR : Arthur Hiller
GENRE : криминал, комедия
ITUNEXTC : mpaa|R|400|
ORIGINAL_TITLE : See No Evil, Hear No Evil
PRODUCER : Marvin Worth
PUBLISHER : TriStar Pictures
RATING : 7.49
WRITER : Earl Barret, Arne Sultan, Eliot Wald, Andrew Kurtzman, Gene Wilder

Video
ID : 1
Format : AVC
Format/Info : Advanced Video Codec
Format profile : High@L4.1
Format settings : CABAC / 14 Ref Frames
Format settings, CABAC : Yes
Format settings, ReFrames : 14 frames
Codec ID : V_MPEG4/ISO/AVC
Duration : 1 h 42 min
Bit rate : 3 887 kb/s
Width : 1 034 pixels
Height : 560 pixels
Display aspect ratio : 1.85:1
Frame rate mode : Constant
Frame rate : 23.976 (24000/1001) FPS
Color space : YUV
Chroma subsampling : 4:2:0
Bit depth : 8 bits
Scan type : Progressive
Bits/(Pixel*Frame) : 0.280
Stream size : 2.77 GiB (78%)
Title : RIP_BY_-=DoMiNo=-
Writing library : x264 core 157 r2935 545de2f
Encoding settings : cabac=1 / ref=14 / deblock=1:-1:-1 / analyse=0x3:0x133 / me=umh / subme=11 / psy=1 / psy_rd=1.07:0.20 / mixed_ref=1 / me_range=48 / chroma_me=1 / trellis=2 / 8x8dct=1 / cqm=0 / deadzone=21,11 / fast_pskip=0 / chroma_qp_offset=-3 / threads=6 / lookahead_threads=1 / sliced_threads=0 / nr=0 / decimate=1 / interlaced=0 / bluray_compat=0 / constrained_intra=0 / bframes=16 / b_pyramid=2 / b_adapt=2 / b_bias=0 / direct=1 / weightb=1 / open_gop=0 / weightp=2 / keyint=240 / keyint_min=24 / scenecut=40 / intra_refresh=0 / rc=crf / mbtree=0 / crf=20.0 / qcomp=0.70 / qpmin=16 / qpmax=69 / qpstep=4 / ip_ratio=1.40 / pb_ratio=1.30 / aq=1:0.80
Language : English
Default : Yes
Forced : No

Audio #1
ID : 2
Format : AC-3
Format/Info : Audio Coding 3
Commercial name : Dolby Digital
Codec ID : A_AC3
Duration : 1 h 42 min
Bit rate mode : Constant
Bit rate : 224 kb/s
Channel(s) : 2 channels
Channel layout : L R
Sampling rate : 48.0 kHz
Frame rate : 31.250 FPS (1536 SPF)
Bit depth : 16 bits
Compression mode : Lossy
Stream size : 164 MiB (4%)
Title : Видеосервис
Language : Russian
Service kind : Complete Main
Default : Yes
Forced : No

Audio #2
ID : 3
Format : AC-3
Format/Info : Audio Coding 3
Commercial name : Dolby Digital
Codec ID : A_AC3
Duration : 1 h 42 min
Bit rate mode : Constant
Bit rate : 192 kb/s
Channel(s) : 2 channels
Channel layout : L R
Sampling rate : 48.0 kHz
Frame rate : 31.250 FPS (1536 SPF)
Bit depth : 16 bits
Compression mode : Lossy
Stream size : 140 MiB (4%)
Title : ОРТ
Language : Russian
Service kind : Complete Main
Default : No
Forced : No

Audio #3
ID : 4
Format : AC-3
Format/Info : Audio Coding 3
Commercial name : Dolby Digital
Codec ID : A_AC3
Duration : 1 h 42 min
Bit rate mode : Constant
Bit rate : 224 kb/s
Channel(s) : 2 channels
Channel layout : L R
Sampling rate : 48.0 kHz
Frame rate : 31.250 FPS (1536 SPF)
Bit depth : 16 bits
Compression mode : Lossy
Stream size : 164 MiB (4%)
Title : А.Михалёв
Language : Russian
Service kind : Complete Main
Default : No
Forced : No

Audio #4
ID : 5
Format : AC-3
Format/Info : Audio Coding 3
Commercial name : Dolby Digital
Codec ID : A_AC3
Duration : 1 h 42 min
Bit rate mode : Constant
Bit rate : 224 kb/s
Channel(s) : 2 channels
Channel layout : L R
Sampling rate : 48.0 kHz
Frame rate : 31.250 FPS (1536 SPF)
Bit depth : 16 bits
Compression mode : Lossy
Stream size : 164 MiB (4%)
Title : Новий канал
Language : Ukrainian
Service kind : Complete Main
Default : No
Forced : No

Audio #5
ID : 6
Format : AC-3
Format/Info : Audio Coding 3
Commercial name : Dolby Digital
Codec ID : A_AC3
Duration : 1 h 42 min
Bit rate mode : Constant
Bit rate : 224 kb/s
Channel(s) : 2 channels
Channel layout : L R
Sampling rate : 48.0 kHz
Frame rate : 31.250 FPS (1536 SPF)
Bit depth : 16 bits
Compression mode : Lossy
Stream size : 164 MiB (4%)
Title : ENG
Language : English
Service kind : Complete Main
Default : No
Forced : No

Text #1
ID : 7
Format : UTF-8
Codec ID : S_TEXT/UTF8
Codec ID/Info : UTF-8 Plain Text
Duration : 1 h 35 min
Bit rate : 106 b/s
Count of elements : 1332
Stream size : 74.5 KiB (0%)
Title : Видеосервис
Language : Russian
Default : No
Forced : No

Text #2
ID : 8
Format : UTF-8
Codec ID : S_TEXT/UTF8
Codec ID/Info : UTF-8 Plain Text
Duration : 1 h 38 min
Bit rate : 133 b/s
Count of elements : 1370
Stream size : 95.9 KiB (0%)
Title : по А.Михалёву
Language : Russian
Default : No
Forced : No

Text #3
ID : 9
Format : UTF-8
Codec ID : S_TEXT/UTF8
Codec ID/Info : UTF-8 Plain Text
Duration : 42 min 7 s
Bit rate : 81 b/s
Count of elements : 717
Stream size : 25.0 KiB (0%)
Title : ENG
Language : English
Default : No
Forced : No

Menu
00:00:00.000 : :00:00:00.000
00:06:18.544 : :00:06:18.545
00:12:29.039 : :00:12:29.040
00:20:05.954 : :00:20:05.955
00:24:44.733 : :00:24:44.733
00:30:22.946 : :00:30:22.946
00:35:54.026 : :00:35:54.027
00:43:46.498 : :00:43:46.499
00:52:08.708 : :00:52:08.709
00:57:32.198 : :00:57:32.199
01:05:00.438 : :01:05:00.438
01:12:27.968 : :01:12:27.969
01:17:33.106 : :01:17:33.107
01:22:13.511 : :01:22:13.512
01:26:41.154 : :01:26:41.154
01:33:50.374 : :01:33:50.375



   Похожие торренты   Торрент   Размер 
В этой теме нет новых непрочитанных сообщений. Ничего не вижу, ничего не слышу / See No Evil, Hear No Evil (1989) BDRip 720p от k.e.n & MegaPeer | P, A

16 | 13

5.75 ГБ

В этой теме нет новых непрочитанных сообщений. Ничего не вижу, ничего не слышу / See No Evil, Hear No Evil (1989) BDRip-AVC от ExKinoRay | P

51 | 5

745.78 МБ

В этой теме нет новых непрочитанных сообщений. Не вижу зла 2 / See No Evil 2 (2014) BDRip-AVC

249 | 45

2.18 ГБ

В этой теме нет новых непрочитанных сообщений. Не вижу зла 2 / See No Evil 2 (2014) BDRip 720p от Сinemania | L

567 | 58

4.7 ГБ

В этой теме нет новых непрочитанных сообщений. Не вижу зла 2 / See No Evil 2 (2014) BDRip 1080р от Сinemania | L

392 | 55

9.58 ГБ

В этой теме нет новых непрочитанных сообщений. Не вижу зла / See No Evil (2006) BDRip 720p от KinoGadget | iPad | D

15 | 5

2.47 ГБ

В этой теме нет новых непрочитанных сообщений. Не вижу зла 2 / See No Evil 2 (2014) BDRip 720p от Leonardo and Scarabey | L

402 | 37

2.28 ГБ




Вы не можете начинать темы
Вы не можете отвечать на сообщения
Вы не можете редактировать свои сообщения
Вы не можете удалять свои сообщения
Вы не можете добавлять вложения

Перейти:  
 Вход
ppkBB3cker v.2 © 2008-2014 @ PPK
[ Time : 0.029s | 19 Queries | GZIP : Off ]

cron