img image001 image001 image001 image001 image001 image001 image001 image001 image001 image001 image001 image001 image001 image001 image001

Planets Sun Sun Sun
Статистика раздачи
Автор: PriZraK | Размер: 3.38 ГБ | Добавлен: 13 авг 2019
Раздают: 187    Качают: 3
Скачать торрент
Скачать торрент
Описание торрента

СообщениеДобавлено: 13 авг 2019 

Информация о фильме
Название: Аладдин
Оригинальное название: Aladdin
Год выхода: 2019
Жанр: Мюзикл, фэнтези, мелодрама, комедия, приключения, семейный
Режиссер: Гай Ричи
В ролях: Мена Массуд, Наоми Скотт, Уилл Смит, Билли Магнуссен, Алан Тьюдик, Назим Педрад, Марван Кензари, Нуман Аджар, Фрэнк Уэлкер, Навид Негабан
О фильме: Молодой воришка по имени Аладдин хочет стать принцем, чтобы жениться на принцессе Жасмин. Тем временем визирь Аграбы Джафар намеревается захватить власть над Аграбой, а для этого он стремится заполучить волшебную лампу, хранящуюся в пещере чудес, доступ к которой разрешен лишь тому, кого называют «алмаз неограненный», и этим человеком является не кто иной, как сам Аладдин.

Страна: США
Продолжительность: 02:07:58
Перевод: Профессиональный (многоголосый, закадровый) [HDRezka Studio]
Файл
Кодек: H.265
Качество: WEBRip-HEVC 720p
Видео: HEVC, 1280x536 (2.40:1), 23.976 fps, 3 005 kb/s
Аудио 1: AC-3, 48.0 kHz, 2 ch, 192 kb/s | RUS (MVO / HDRezka Studio)
Аудио 2: AC-3, 48.0 kHz, 2 ch, 192 kb/s | UKR (DUB / Line)
Аудио 3: AC-3, 48.0 kHz, 6 ch, 384 kb/s | ENG (Оригинал)
Субтитры: Русские (форс. на песни), английские (full, SDH)

Сэмпл

General
Unique ID : 192874684960998672114247178054318344825 (0x911A5029292B1DC5963F3F591072CA79)
Complete name : Aladdin.2019.WEBRip.720p.HEVC.mkv
Format : Matroska
Format version : Version 4
File size : 3.38 GiB
Duration : 2 h 7 min
Overall bit rate : 3 776 kb/s
Encoded date : UTC 2019-08-13 11:06:10
Writing application : mkvmerge v8.3.0 ('Over the Horizon') 64bit
Writing library : libebml v1.3.1 + libmatroska v1.4.2

Video
ID : 1
Format : HEVC
Format/Info : High Efficiency Video Coding
Codec ID : V_MPEGH/ISO/HEVC
Duration : 2 h 7 min
Bit rate : 3 005 kb/s
Width : 1 280 pixels
Height : 536 pixels
Display aspect ratio : 2.40:1
Frame rate mode : Constant
Frame rate : 23.976 (24000/1001) FPS
Color space : YUV
Chroma subsampling : 4:2:0
Bit depth : 10 bits
Bits/(Pixel*Frame) : 0.183
Stream size : 2.69 GiB (80%)
Writing library : x265 3.1+4-4f6dde51a5db:[Windows][clang 8.0.0][64 bit] 10bit
Encoding settings : cpuid=1310959 / frame-threads=5 / numa-pools=4 / wpp / no-pmode / no-pme / no-psnr / no-ssim / log-level=3 / input-csp=1 / input-res=1280x536 / interlace=0 / total-frames=0 / level-idc=41 / high-tier=1 / uhd-bd=0 / ref=7 / allow-non-conformance / no-repeat-headers / annexb / no-aud / no-hrd / info / hash=0 / no-temporal-layers / open-gop / min-keyint=24 / keyint=240 / gop-lookahead=0 / bframes=6 / b-adapt=2 / b-pyramid / bframe-bias=0 / rc-lookahead=20 / lookahead-slices=0 / scenecut=40 / radl=0 / no-splice / no-intra-refresh / ctu=64 / min-cu-size=8 / no-rect / no-amp / max-tu-size=32 / tu-inter-depth=1 / tu-intra-depth=1 / limit-tu=0 / rdoq-level=0 / dynamic-rd=0.00 / no-ssim-rd / signhide / no-tskip / nr-intra=0 / nr-inter=0 / no-constrained-intra / strong-intra-smoothing / max-merge=3 / limit-refs=1 / no-limit-modes / me=1 / subme=2 / merange=57 / temporal-mvp / weightp / no-weightb / no-analyze-src-pics / deblock=-1:-1 / sao / no-sao-non-deblock / rd=3 / early-skip / rskip / no-fast-intra / no-tskip-fast / no-cu-lossless / b-intra / no-splitrd-skip / rdpenalty=0 / psy-rd=2.00 / psy-rdoq=0.00 / no-rd-refine / no-lossless / cbqpoffs=0 / crqpoffs=0 / rc=abr / bitrate=3000 / qcomp=0.60 / qpstep=4 / stats-write=0 / stats-read=0 / ipratio=1.40 / pbratio=1.30 / aq-mode=2 / aq-strength=1.00 / cutree / zone-count=0 / no-strict-cbr / qg-size=32 / no-rc-grain / qpmax=69 / qpmin=0 / no-const-vbv / sar=1 / overscan=0 / videoformat=5 / range=0 / colorprim=1 / transfer=1 / colormatrix=1 / chromaloc=0 / display-window=0cll=0,0 / min-luma=0 / max-luma=1023 / log2-max-poc-lsb=8 / vui-timing-info / vui-hrd-info / slices=1 / no-opt-qp-pps / no-opt-ref-list-length-pps / no-multi-pass-opt-rps / scenecut-bias=0.05 / no-opt-cu-delta-qp / no-aq-motion / no-hdr / no-hdr-opt / no-dhdr10-opt / no-idr-recovery-sei / analysis-reuse-level=5 / scale-factor=0 / refine-intra=0 / refine-inter=0 / refine-mv=0 / refine-ctu-distortion=0 / no-limit-sao / ctu-info=0 / no-lowpass-dct / refine-analysis-type=849411136 / copy-pic=1 / max-ausize-factor=1.0 / no-dynamic-refine / no-single-sei / no-hevc-aq / no-svt / no-field / qp-adaptation-range=1.00
Default : Yes
Forced : No
Color range : Limited
Color primaries : BT.709
Transfer characteristics : BT.709
Matrix coefficients : BT.709

Audio #1
ID : 2
Format : AC-3
Format/Info : Audio Coding 3
Commercial name : Dolby Digital
Codec ID : A_AC3
Duration : 2 h 7 min
Bit rate mode : Constant
Bit rate : 192 kb/s
Channel(s) : 2 channels
Channel layout : L R
Sampling rate : 48.0 kHz
Frame rate : 31.250 FPS (1536 SPF)
Bit depth : 16 bits
Compression mode : Lossy
Stream size : 176 MiB (5%)
Title : MVO (HDRezka Studio)
Language : Russian
Default : Yes
Forced : No

Audio #2
ID : 3
Format : AC-3
Format/Info : Audio Coding 3
Commercial name : Dolby Digital
Codec ID : A_AC3
Duration : 2 h 7 min
Bit rate mode : Constant
Bit rate : 192 kb/s
Channel(s) : 2 channels
Channel layout : L R
Sampling rate : 48.0 kHz
Frame rate : 31.250 FPS (1536 SPF)
Bit depth : 16 bits
Compression mode : Lossy
Stream size : 176 MiB (5%)
Title : DUB (Ledoyen, Line)
Language : Ukrainian
Default : No
Forced : No

Audio #3
ID : 4
Format : AC-3
Format/Info : Audio Coding 3
Commercial name : Dolby Digital
Codec ID : A_AC3
Duration : 2 h 7 min
Bit rate mode : Constant
Bit rate : 384 kb/s
Channel(s) : 6 channels
Channel layout : L R C LFE Ls Rs
Sampling rate : 48.0 kHz
Frame rate : 31.250 FPS (1536 SPF)
Bit depth : 16 bits
Compression mode : Lossy
Stream size : 351 MiB (10%)
Language : English
Default : No
Forced : No

Text #1
ID : 5
Format : UTF-8
Codec ID : S_TEXT/UTF8
Codec ID/Info : UTF-8 Plain Text
Duration : 1 h 59 min
Bit rate : 14 b/s
Count of elements : 291
Stream size : 12.4 KiB (0%)
Title : Forced
Language : Russian
Default : Yes
Forced : Yes

Text #2
ID : 6
Format : UTF-8
Codec ID : S_TEXT/UTF8
Codec ID/Info : UTF-8 Plain Text
Duration : 1 h 58 min
Bit rate : 50 b/s
Count of elements : 1682
Stream size : 43.4 KiB (0%)
Title : Full
Language : English
Default : No
Forced : No

Text #3
ID : 7
Format : UTF-8
Codec ID : S_TEXT/UTF8
Codec ID/Info : UTF-8 Plain Text
Duration : 2 h 7 min
Bit rate : 69 b/s
Count of elements : 2433
Stream size : 65.1 KiB (0%)
Title : SDH
Language : English
Default : No
Forced : No


   Похожие торренты   Торрент   Размер 
В этой теме нет новых непрочитанных сообщений. Аладдин / Aladdin (2019) WEB-DLRip-AVC | HDRezka Studio

333 | 51

2.45 ГБ

В этой теме нет новых непрочитанных сообщений. Аладдин / Aladdin (2019) WEB-DL 1080p | HDRezka Studio

4463 | 373

5.97 ГБ

В этой теме нет новых непрочитанных сообщений. Аладдин / Aladdin (2019) WEB-DLRip от Scarabey | HDRezka Studio

452 | 27

1.45 ГБ

В этой теме нет новых непрочитанных сообщений. Аладдин / Aladdin (2019) WEB-DLRip от Scarabey | HDRezka Studio

94 | 9

795.27 МБ

В этой теме нет новых непрочитанных сообщений. Аладдин / Aladdin (2019) WEB-DLRip-AVC от ExKinoRay | HDRezka Studio

198 | 5

745.71 МБ

В этой теме нет новых непрочитанных сообщений. Аладдин / Aladdin (2019) WEB-DLRip от MegaPeer | HDRezka Studio

396 | 6

1.46 ГБ

В этой теме нет новых непрочитанных сообщений. Аладдин / Aladdin (Гай Ричи) [2019, мелодрама, комедия, приключения, мюзикл, фэнтези, семейный, WEBRip] (ukr)

6 | 2

2 ГБ




Вы не можете начинать темы
Вы не можете отвечать на сообщения
Вы не можете редактировать свои сообщения
Вы не можете удалять свои сообщения
Вы не можете добавлять вложения

Перейти:  
 Вход
ppkBB3cker v.2 © 2008-2014 @ PPK
[ Time : 0.025s | 16 Queries | GZIP : Off ]

cron