img image001 image001 image001 image001 image001 image001 image001 image001 image001 image001 image001 image001 image001 image001 image001

Planets Sun Sun Sun
Статистика раздачи
Автор: PriZraK | Размер: 1.46 ГБ | Добавлен: 13 авг 2019
Раздают: 34    Качают: 2
Скачать торрент
Скачать торрент
Описание торрента

СообщениеДобавлено: 13 авг 2019 

Ломка / Resolution

Страна: США
Производство: Back Board Cinema
Год выпуска: 2012
Жанр: ужасы, триллер, детектив
Продолжительность: 01:33:03

Режиссеры: Джастин Бенсон, Аарон Мурхед
В ролях: Питер Силелла, Винни Каррен, Эмили Монтегью, Курт Дэвид Андерсон, Скайлер Мичам, Джош Хиггинс, Билл Оберст мл., Зан Маккларнон

Описание: То, что начинается как попытка спасти друга от наркозависимости, принимает неожиданный и жуткий оборот. Послание, принятое за крик наркомана о помощи, его полуразрушенный дом, случайно найденные пугающие плёнки и дневники, незнакомцы с неясными намерениями… Наркотики — далеко не самое страшное, с чем придётся столкнуться героям...



Перевод: Профессиональный (полное дублирование)
Субтитры: нет


Качество: НDRip | исходник - Resolution.2012.Blu.Ray.1080p
Формат: AVI
Видео кодек: XviD
Аудио кодек: АС3
Видео: 720x304 (2.35:1), 23.976 fps, XviD build 73 ~2 037 kbps avg
Аудио: 48.0 kHz, AC3 Dolby Digital, 2/0 (L,R) ch, ~192 kbps

Дата премьеры (мир): 22 апреля 2012
Дата премьеры (РФ): 27 июня 2013, «Кинопром»



Релиз от: tеko
General
Полное имя : Resolution.2012.hdrip_[1.46]_[teko].avi
Формат : AVI
Формат/Информация : Audio Video Interleave
Размер файла : 1,46 Гбайт
Продолжительность : 1 ч. 33 м.
Общий поток : 2238 Кбит/сек
Программа кодирования : VirtualDubMod 1.5.10.3 | (build 2550/release)
Библиотека кодирования : VirtualDubMod build 2550/release

Видео
Идентификатор : 0
Формат : MPEG-4 Visual
Профиль формата : Advanced Simple@L5
Параметр BVOP формата : 1
Параметр QPel формата : Нет
Параметр GMC формата : Без точки перехода
Параметр матрицы формата : Выборочная
Идентификатор кодека : XVID
Идентификатор кодека/Подсказка : XviD
Продолжительность : 1 ч. 33 м.
Битрейт : 2037 Кбит/сек
Ширина : 720 пикселей
Высота : 304 пикселя
Соотношение сторон : 2,35:1
Частота кадров : 23,976 кадра/сек
Цветовое пространство : YUV
Субдискретизация насыщенности : 4:2:0
Битовая глубина : 8 бит
Тип развёртки : Прогрессивная
Метод сжатия : С потерями
Бит/(Пиксели*Кадры) : 0.388
Размер потока : 1,32 Гбайт (91%)
Библиотека кодирования : XviD 73

Аудио
Идентификатор : 1
Формат : AC-3
Формат/Информация : Audio Coding 3
Расширение режима : CM (complete main)
Параметр Endianness формата : Big
Идентификатор кодека : 2000
Продолжительность : 1 ч. 33 м.
Вид битрейта : Постоянный
Битрейт : 192 Кбит/сек
Каналы : 2 канала
Расположение каналов : Front: L R
Частота : 48,0 КГц
Битовая глубина : 16 бит
Метод сжатия : С потерями
Размер потока : 128 Мбайт (9%)
Выравнивание : Разделение по промежуткам
Продолжительность промежутка : 42 мс. (1,00 видеокадр)
Время предзагрузки промежутка : 500 мс.

   Похожие торренты   Торрент   Размер 
В этой теме нет новых непрочитанных сообщений. VA - The Dark Side Of Trance: Bad Resolution (2015) MP3

10 | 5

250.91 МБ

В этой теме нет новых непрочитанных сообщений. Fallout 4 [v.1.9.4.0.1 + 7 DLC] [High Resolution Texture Pack] (2015) PC | RePack от =nemos=

22 | 5

66.32 ГБ

В этой теме нет новых непрочитанных сообщений. Fallout 4 [High Resolution Texture Pack для v 1.9.4.0.1] (2015) PC | RePack от FitGirl

11 | 0

31.63 ГБ

В этой теме нет новых непрочитанных сообщений. Fallout 4 [High Resolution Texture Pack для v 1.9.4.0.1 и выше] (2015) PC | RePack от FitGirl

19 | 10

30.55 ГБ

В этой теме нет новых непрочитанных сообщений. Больной мальчик / Sick Boy (2012) НDRip | L2

165 | 18

1.36 ГБ

В этой теме нет новых непрочитанных сообщений. Снежная королева (2012) НDRip by Alekxandr48

269 | 7

1.36 ГБ

В этой теме нет новых непрочитанных сообщений. Прайм-тайм / Prime Time (2012) НDRip | Р

13 | 0

1.38 ГБ




Вы не можете начинать темы
Вы не можете отвечать на сообщения
Вы не можете редактировать свои сообщения
Вы не можете удалять свои сообщения
Вы не можете добавлять вложения

Перейти:  
 Вход
ppkBB3cker v.2 © 2008-2014 @ PPK
[ Time : 0.024s | 17 Queries | GZIP : Off ]

cron