img image001 image001 image001 image001 image001 image001 image001 image001 image001 image001 image001 image001 image001 image001 image001

Planets Sun Sun Sun
Статистика раздачи
Автор: PriZraK | Размер: 10.68 ГБ | Добавлен: 13 авг 2019
Раздают: 9    Качают: 2
Скачать торрент
Скачать торрент
Описание торрента

СообщениеДобавлено: 13 авг 2019 

Информация о фильме
Название: В поисках Стива Маккуина
Оригинальное название: Finding Steve McQueen
Год выпуска: 2019
Жанр: Криминал, мелодрама
Режиссер: Марк Стивен Джонсон
В ролях: Трэвис Фиммел, Уильям Фихтнер, Рэйчел Тейлор, Форест Уитакер, Лили Рэйб, Джейк Вири, Рис Койро, Джон Финн, Луис Ломбарди, Джоя Либардони

О фильме: Действия фильма происходят в 1972 году накануне очередных выборов президента США. Шайка преступников решает совершить ограбление века и завладеть незаконным предвыборным фондом Ричарда Никсона. На кону оказывается огромная сумма в тридцать миллионов долларов. Чтобы добиться успеха, преступникам необходимо продумать каждый свой шаг, каждое дыхание. Им удается придумать безупречный план, но в момент проведения операции, в дело вмешивается его величество случай и преступники оказываются в очень сложном положении. Теперь они готовы сделать все, чтобы не попасть в руки полиции.



Страна: США
Студия: AMBI Group, BondIt Media Capital, Identity Films
Продолжительность: 01:31:35
Перевод: Профессиональный (многоголосый закадровый) HDRezka Studio

Файл
Формат: MKV
Качество: BDRip 1080p
Видео: MPEG-4 AVC Video, 1920x1040 (1.85:1), 15000 Kbps, 23.976 fps
Аудио#1: Russian (AC3, 2 ch, 192 kbps, 16 bits, 48.0 KHz) - HDRezka Studio
Аудио#2: English (DTS, 6 ch, 1509 kbps, 16 bits, 48.0 KHz) - Оригинал
Субтитры: Русские (Forced), английские



General
Unique ID : 79278570433800422117036889523442808879 (0x3BA47F4D647F61D30F3CFF160131F82F)
Complete name : G:Finding.Steve.McQueen.2019.BDRip.1080p.mkv
Format : Matroska
Format version : Version 4 / Version 2
File size : 10.7 GiB
Duration : 1 h 31 min
Overall bit rate : 16.7 Mb/s
Encoded date : UTC 2019-08-12 23:59:25
Writing application : mkvmerge v20.0.0 ('I Am The Sun') 64-bit
Writing library : libebml v1.3.5 + libmatroska v1.4.8

Video
ID : 1
Format : AVC
Format/Info : Advanced Video Codec
Format profile : High@L4.1
Format settings : CABAC / 4 Ref Frames
Format settings, CABAC : Yes
Format settings, RefFrames : 4 frames
Codec ID : V_MPEG4/ISO/AVC
Duration : 1 h 31 min
Bit rate : 15.0 Mb/s
Width : 1 920 pixels
Height : 1 040 pixels
Display aspect ratio : 1.85:1
Frame rate mode : Constant
Frame rate : 23.976 (24000/1001) FPS
Color space : YUV
Chroma subsampling : 4:2:0
Bit depth : 8 bits
Scan type : Progressive
Bits/(Pixel*Frame) : 0.313
Stream size : 9.59 GiB (90%)
Writing library : x264 core 155 r2867+74 66b5600 t_mod_Custom_2 [8-bit@all X86_64]
Encoding settings : cabac=1 / ref=4 / deblock=1:-3:-3 / analyse=0x3:0x133 / me=umh / subme=11 / psy=1 / fade_compensate=0.00 / psy_rd=1.00:0.00 / mixed_ref=1 / me_range=32 / chroma_me=1 / trellis=2 / 8x8dct=1 / cqm=0 / deadzone=21,11 / fast_pskip=0 / chroma_qp_offset=-2 / threads=18 / lookahead_threads=3 / sliced_threads=0 / nr=0 / decimate=0 / interlaced=0 / bluray_compat=0 / constrained_intra=0 / fgo=0 / bframes=9 / b_pyramid=2 / b_adapt=2 / b_bias=0 / direct=3 / weightb=1 / open_gop=0 / weightp=2 / keyint=250 / keyint_min=23 / scenecut=40 / intra_refresh=0 / rc=2pass / mbtree=0 / bitrate=15000 / ratetol=1.0 / qcomp=0.60 / qpmin=0:0:0 / qpmax=69:69:69 / qpstep=4 / cplxblur=20.0 / qblur=0.5 / ip_ratio=1.30 / pb_ratio=1.20 / aq=3:0.80 / aq-sensitivity=10.00 / aq-factor=1.00:1.00:1.00 / aq2=0 / aq3=0
Language : English
Default : Yes
Forced : No

Audio #1
ID : 2
Format : AC-3
Format/Info : Audio Coding 3
Codec ID : A_AC3
Duration : 1 h 31 min
Bit rate mode : Constant
Bit rate : 192 kb/s
Channel(s) : 2 channels
Channel positions : Front: L R
Sampling rate : 48.0 kHz
Frame rate : 31.250 FPS (1536 SPF)
Bit depth : 16 bits
Compression mode : Lossy
Stream size : 126 MiB (1%)
Title : MVO HDRezka
Language : Russian
Service kind : Complete Main
Default : Yes
Forced : No

Audio #2
ID : 3
Format : DTS
Format/Info : Digital Theater Systems
Codec ID : A_DTS
Duration : 1 h 31 min
Bit rate mode : Constant
Bit rate : 1 509 kb/s
Channel(s) : 6 channels
Channel positions : Front: L C R, Side: L R, LFE
Sampling rate : 48.0 kHz
Frame rate : 93.750 FPS (512 SPF)
Bit depth : 16 bits
Compression mode : Lossy
Stream size : 989 MiB (9%)
Language : English
Default : No
Forced : No

Text #1
ID : 4
Format : UTF-8
Codec ID : S_TEXT/UTF8
Codec ID/Info : UTF-8 Plain Text
Duration : 45 s 493 ms
Bit rate : 133 b/s
Count of elements : 7
Stream size : 761 Bytes (0%)
Title : forced
Language : Russian
Default : Yes
Forced : Yes

Text #2
ID : 5
Format : UTF-8
Codec ID : S_TEXT/UTF8
Codec ID/Info : UTF-8 Plain Text
Duration : 1 h 29 min
Bit rate : 63 b/s
Count of elements : 1152
Stream size : 41.7 KiB (0%)
Language : English
Default : No
Forced : No

Menu
00:00:00.000 : :Chapter 01
00:05:08.266 : :Chapter 02
00:11:28.271 : :Chapter 03
00:16:36.746 : :Chapter 04
00:21:04.054 : :Chapter 05
00:30:22.612 : :Chapter 06
00:36:51.960 : :Chapter 07
00:43:00.161 : :Chapter 08
00:47:52.787 : :Chapter 09
00:55:21.735 : :Chapter 10
01:01:15.755 : :Chapter 11
01:07:14.447 : :Chapter 12
01:11:45.384 : :Chapter 13
01:15:02.873 : :Chapter 14
01:22:23.856 : :Chapter 15
01:28:33.808 : :Chapter 16

   Похожие торренты   Торрент   Размер 
В этой теме нет новых непрочитанных сообщений. В поисках Стива Маккуина / Finding Steve McQueen (2019) BDRip от MegaPeer | HDRezka Studio

81 | 8

1.46 ГБ

В этой теме нет новых непрочитанных сообщений. В поисках Стива Маккуина / Finding Steve McQueen (Марк Стивен Джонсон) [2019, криминал, мелодрама, WEBDLRip] MVO

6 | 0

1.37 ГБ

В этой теме нет новых непрочитанных сообщений. В поисках Стива Маккуина / Finding Steve McQueen (Марк Стивен Джонсон) [2019, криминал, мелодрама, WEBDLRip] MVO

17 | 1

1.46 ГБ

В этой теме нет новых непрочитанных сообщений. Аладдин / Aladdin (2019) WEB-DL 1080p | HDRezka Studio

4463 | 373

5.97 ГБ

В этой теме нет новых непрочитанных сообщений. Я - Стив МакКуин / I Am Steve McQueen (2014) HDTVRip-AVC | P

0 | 0

1.14 ГБ

В этой теме нет новых непрочитанных сообщений. Я - Стив МакКуин / I Am Steve McQueen (2014) HDTVRip 720p | P

8 | 0

2.65 ГБ

В этой теме нет новых непрочитанных сообщений. В поисках Дори / Finding Dory (2016) BDRip 1080p | Лицензия

6 | 3

12.46 ГБ




Вы не можете начинать темы
Вы не можете отвечать на сообщения
Вы не можете редактировать свои сообщения
Вы не можете удалять свои сообщения
Вы не можете добавлять вложения

Перейти:  
 Вход
ppkBB3cker v.2 © 2008-2014 @ PPK
[ Time : 0.019s | 16 Queries | GZIP : Off ]

cron