img image001 image001 image001 image001 image001 image001 image001 image001 image001 image001 image001 image001 image001 image001 image001

Planets Sun Sun Sun
Статистика раздачи
Автор: PriZraK | Размер: 741.68 МБ | Добавлен: 13 авг 2019
Раздают: 64    Качают: 11
Скачать торрент
Скачать торрент
Описание торрента

СообщениеДобавлено: 13 авг 2019 

Информация о фильме
Название: Гризли / В лабиринте гризли
Оригинальное название: Into the Grizzly Maze
Год выхода: 2015
Жанр: Ужасы, боевик, триллер
Режиссер: Дэвид Хэкл / David Hackl
В ролях: Томас Джейн, Джеймс Марсден, Пайпер Перабо, Билли Боб Торнтон, Скотт Гленн, Гари Чок, Михаэлла МакМанус, Адам Бич, Патрик Сабонгуй, Луиза Д’Оливера...

О фильме:
Первый - только что вышедший из тюрьмы отчужденец, второй - шериф небольшого города, помогающий своей глухонемой невесте. Они братья, которые больше не находят слов друг для друга. Наладить отношения могла помочь вылазка на природу, однако этим планам мешает сбыться разъяренный медведь…


Страна: США, Канада
Студия: Indomitable Entertainment, Paul Schiff Productions, Purple Pictures
Продолжительность: 01:29:47
Перевод: Профессиональный (многоголосый закадровый) iTunes

Файл
Формат: Matroska
Качество: HDRip-AVC
Видео: 720x388 at 23.976 fps, x264, ~1076 kbps
Аудио: AAC, 2 ch, ~80 kbps - | Русский | -
Субтитры: Нет

***Релиз от: -=DoMiNo=-

x264 info: frame I:1139 Avg QP:14.93 size: 40281
x264 info: frame P:34952 Avg QP:18.48 size: 10819
x264 info: frame B:93055 Avg QP:20.16 size: 3206
x264 info: consecutive B-frames: 4.0% 6.2% 10.5% 47.3% 10.8% 16.8% 1.6% 1.6% 0.4% 0.2% 0.1% 0.2% 0.2%

General
Format : Matroska
Format version : Version 4
File size : 742 MiB
Duration : 1 h 29 min
Overall bit rate : 1 154 kb/s
Movie name : Гризли.(2015).HDRip-AVC.[-=DoMiNo=-]
Encoded date : UTC 2019-08-13 11:47:41
Writing application : mkvmerge v36.0.0 ('Is That Jazz?') 64-bit
Writing library : libebml v1.3.9 + libmatroska v1.5.2
Attachments : poster.jpg / poster 2.jpg

Video
ID : 1
Format : AVC
Format/Info : Advanced Video Codec
Format profile : High@L4.1
Format settings : CABAC / 12 Ref Frames
Format settings, CABAC : Yes
Format settings, Reference : 12 frames
Codec ID : V_MPEG4/ISO/AVC
Duration : 1 h 29 min
Bit rate : 1 076 kb/s
Width : 720 pixels
Height : 388 pixels
Display aspect ratio : 1.85:1
Frame rate mode : Constant
Frame rate : 23.976 (24000/1001) FPS
Color space : YUV
Chroma subsampling : 4:2:0
Bit depth : 8 bits
Scan type : Progressive
Bits/(Pixel*Frame) : 0.161
Stream size : 689 MiB (93%)
Title : RIP_BY_-=DoMiNo=-
Writing library : x264 core 157 r2958 57baac4
Encoding settings : cabac=1 / ref=12 / deblock=1:-1:-1 / analyse=0x3:0x133 / me=umh / subme=10 / psy=1 / psy_rd=1.00:0.10 / mixed_ref=1 / me_range=32 / chroma_me=1 / trellis=2 / 8x8dct=1 / cqm=0 / deadzone=21,11 / fast_pskip=0 / chroma_qp_offset=-3 / threads=6 / lookahead_threads=1 / sliced_threads=0 / nr=0 / decimate=0 / interlaced=0 / bluray_compat=0 / constrained_intra=0 / bframes=12 / b_pyramid=2 / b_adapt=2 / b_bias=0 / direct=3 / weightb=1 / open_gop=0 / weightp=2 / keyint=240 / keyint_min=24 / scenecut=40 / intra_refresh=0 / rc_lookahead=60 / rc=2pass / mbtree=0 / bitrate=1076 / ratetol=1.0 / qcomp=0.60 / qpmin=0 / qpmax=69 / qpstep=4 / cplxblur=20.0 / qblur=0.5 / vbv_maxrate=50000 / vbv_bufsize=62500 / nal_hrd=none / filler=0 / ip_ratio=1.40 / pb_ratio=1.30 / aq=3:0.90
Language : English
Default : Yes
Forced : No

Audio
ID : 2
Format : AAC LC SBR
Format/Info : Advanced Audio Codec Low Complexity with Spectral Band Replication
Commercial name : HE-AAC
Format settings : Implicit
Codec ID : A_AAC-2
Duration : 1 h 29 min
Bit rate : 80.0 kb/s
Channel(s) : 2 channels
Channel layout : L R
Sampling rate : 48.0 kHz
Frame rate : 23.438 FPS (2048 SPF)
Compression mode : Lossy
Stream size : 51.4 MiB (7%)
Title : MVO | iTunes
Language : Russian
Default : Yes
Forced : No

Menu
00:00:00.000 : :Глава 01
00:05:00.000 : :Глава 02
00:10:00.000 : :Глава 03
00:15:00.000 : :Глава 04
00:20:00.000 : :Глава 05
00:25:00.000 : :Глава 06
00:30:00.000 : :Глава 07
00:35:00.000 : :Глава 08
00:40:00.000 : :Глава 09
00:45:00.000 : :Глава 10
00:50:00.000 : :Глава 11
00:55:00.000 : :Глава 12
01:00:00.000 : :Глава 13
01:05:00.000 : :Глава 14
01:10:00.000 : :Глава 15
01:15:00.000 : :Глава 16
01:20:00.000 : :Глава 17
01:25:00.000 : :Глава 18



   Похожие торренты   Торрент   Размер 
В этой теме нет новых непрочитанных сообщений. Гризли / Into the Grizzly Maze (2015) HDRip | iTunes

132 | 14

1.37 ГБ

В этой теме нет новых непрочитанных сообщений. Гризли / Into the Grizzly Maze (2015) HDRip от torrentfilm | iTunes

15 | 5

698.99 МБ

В этой теме нет новых непрочитанных сообщений. Гризли / Into the Grizzly Maze (2015) BDRip 720p | Р | iTunes

483 | 123

4.65 ГБ

В этой теме нет новых непрочитанных сообщений. Гризли / Into the Grizzly Maze (2015) BDRip 1080p | Р | iTunes

24 | 5

8.79 ГБ

В этой теме нет новых непрочитанных сообщений. Гризли / Into the Grizzly Maze (2015) HDRip | P

2513 | 151

1.45 ГБ

В этой теме нет новых непрочитанных сообщений. Гризли / Into the Grizzly Maze (2015) HDRip от torrentfilm | Р

168 | 11

699 МБ

В этой теме нет новых непрочитанных сообщений. Гризли / Into the Grizzly Maze (2015) BDRip 1080p | L2, L1

0 | 0

9.66 ГБ




Вы не можете начинать темы
Вы не можете отвечать на сообщения
Вы не можете редактировать свои сообщения
Вы не можете удалять свои сообщения
Вы не можете добавлять вложения

Перейти:  
 Вход
ppkBB3cker v.2 © 2008-2014 @ PPK
[ Time : 0.021s | 16 Queries | GZIP : Off ]

cron