img image001 image001 image001 image001 image001 image001 image001 image001 image001 image001 image001 image001 image001 image001 image001

Planets Sun Sun Sun
Статистика раздачи
Автор: PriZraK | Размер: 2.86 ГБ | Добавлен: 13 авг 2019
Раздают: 98    Качают: 5
Скачать торрент
Скачать торрент
Описание торрента

СообщениеДобавлено: 13 авг 2019 

Ниже холма 60
Beneath Hill 60

«After Gallipoli there was still a war to be won»




Страна: Австралия
Жанр: драма, военный, история
Год выпуска: 2010
Продолжительность: 02:02:12

Перевод: Любительский (двухголосый, закадровый) ["Чип и Дейл"]
Субтитры: русские (полные), английские (полные, SDH)
Оригинальная аудиодорожка: английский

Режиссер: Джереми Симс / Jeremy Sims

В ролях: Брендан Коуэлл, Алан Дьюкс, Алекс Томпсон, Харрисон Гилбертсон, Дункан Янг, Стив Ле Маркванд, Гайтон Грантли, Уорвик Янг, Марк Коулз Смит, Мартин Томас

Описание: К 1916 году Первая мировая война достигла патовой ситуации. Линия фронта протянулась от Ламанша до Швейцарских Альп. Погибли миллион людей. В попытке что-то изменить шахтеры, гражданские люди спустились в тоннели под расположением врага. Началась тайная, безмолвная, подземная война... Фильм основан на реальных событиях.



Релиз:

Автор рипа: stalkerok

Сэмпл

Качество видео: BDRip-AVC | Исходник: Beneath.Hill.60.2010.BluRay.FREEDONOR.NNM_VIDEO
Формат видео: MKV
Видео кодек: AVC
Аудио кодек: AC3
Видео: AVC, 2712 Кбит/сек, 1074x448 (2.40:1), 23,976 кадр/сек
Аудио №1: AC3, 192 Кбит/сек, 48 КГц, 2.0 - русский
Аудио №2: AC3, 448 Кбит/сек, 48 КГц, 5.1 - английский
Навигация по главам: есть


---[Information] [12.08.2019 0:22:51] x264 [info]: frame I:1301 Avg QP:18.35 size: 61953
---[Information] [12.08.2019 0:22:51] x264 [info]: frame P:33862 Avg QP:19.93 size: 27452
---[Information] [12.08.2019 0:22:51] x264 [info]: frame B:140633 Avg QP:21.86 size: 10498

General
Unique ID : 54099980556110370689706595614260283304 (0x28B346FA24964362A9224FD7013947A8)
Complete name : C:tempBeneath Hill 60Beneath.Hill.60.2010.BDRip.x264.Rus.Eng.stalkerok.New-Team..mkv
Format : Matroska
Format version : Version 4
File size : 2.86 GiB
Duration : 2 h 2 min
Overall bit rate : 3 355 kb/s
Movie name : Beneath Hill 60 (2010) | Rip by stalkerok
Encoded date : UTC 2019-08-12 11:19:09
Writing application : mkvmerge v33.1.0 ('Primrose') 64-bit
Writing library : libebml v1.3.7 + libmatroska v1.5.0

Video
ID : 1
Format : AVC
Format/Info : Advanced Video Codec
Format profile : High@L4.1
Format settings : CABAC / 12 Ref Frames
Format settings, CABAC : Yes
Format settings, RefFrames : 12 frames
Codec ID : V_MPEG4/ISO/AVC
Duration : 2 h 2 min
Bit rate : 2 713 kb/s
Width : 1 074 pixels
Height : 448 pixels
Display aspect ratio : 2.40:1
Frame rate mode : Constant
Frame rate : 23.976 (24000/1001) FPS
Color space : YUV
Chroma subsampling : 4:2:0
Bit depth : 8 bits
Scan type : Progressive
Bits/(Pixel*Frame) : 0.235
Stream size : 2.32 GiB (81%)
Title : Beneath Hill 60 (2010) | Rip by stalkerok
Writing library : x264 core 158 r2984+49 6932f4a t_mod_New [0-bit@all X86_64]
Encoding settings : cabac=1 / ref=12 / deblock=1:-3:-2 / analyse=0x3:0x133 / me=umh / subme=11 / psy=1 / fade_compensate=0.00 / psy_rd=1.00:0.00 / mixed_ref=1 / me_range=32 / chroma_me=1 / trellis=2 / 8x8dct=1 / cqm=0 / deadzone=21,11 / fast_pskip=0 / chroma_qp_offset=-2 / threads=12 / lookahead_threads=3 / sliced_threads=0 / nr=0 / decimate=1 / interlaced=0 / bluray_compat=0 / constrained_intra=0 / fgo=0 / bframes=14 / b_pyramid=2 / b_adapt=2 / b_bias=0 / direct=3 / weightb=1 / open_gop=0 / weightp=2 / keyint=240 / keyint_min=23 / scenecut=40 / intra_refresh=0 / rc_lookahead=60 / rc=crf / mbtree=0 / crf=20.0000 / qcomp=0.65 / qpmin=0:0:0 / qpmax=69:69:69 / qpstep=4 / vbv_maxrate=50000 / vbv_bufsize=62500 / crf_max=0.0 / nal_hrd=none / filler=0 / ip_ratio=1.40 / pb_ratio=1.30 / aq=3:0.90 / aq-sensitivity=10.00 / aq-factor=1.00:1.00:1.00 / aq2=0 / aq3=0 / zones=170400,175795,q=32
Default : Yes
Forced : No

Audio #1
ID : 2
Format : AC-3
Format/Info : Audio Coding 3
Commercial name : Dolby Digital
Codec ID : A_AC3
Duration : 2 h 2 min
Bit rate mode : Constant
Bit rate : 192 kb/s
Channel(s) : 2 channels
Channel layout : L R
Sampling rate : 48.0 kHz
Frame rate : 31.250 FPS (1536 SPF)
Bit depth : 16 bits
Compression mode : Lossy
Stream size : 168 MiB (6%)
Title : DVO "Чип и Дейл"
Language : Russian
Service kind : Complete Main
Default : Yes
Forced : No

Audio #2
ID : 3
Format : AC-3
Format/Info : Audio Coding 3
Commercial name : Dolby Digital
Codec ID : A_AC3
Duration : 2 h 2 min
Bit rate mode : Constant
Bit rate : 448 kb/s
Channel(s) : 6 channels
Channel layout : L R C LFE Ls Rs
Sampling rate : 48.0 kHz
Frame rate : 31.250 FPS (1536 SPF)
Bit depth : 16 bits
Compression mode : Lossy
Stream size : 392 MiB (13%)
Language : English
Service kind : Complete Main
Default : No
Forced : No

Text #1
ID : 4
Format : UTF-8
Codec ID : S_TEXT/UTF8
Codec ID/Info : UTF-8 Plain Text
Duration : 1 h 55 min
Bit rate : 68 b/s
Count of elements : 1146
Stream size : 57.9 KiB (0%)
Title : Full
Language : Russian
Default : No
Forced : No

Text #2
ID : 5
Format : UTF-8
Codec ID : S_TEXT/UTF8
Codec ID/Info : UTF-8 Plain Text
Duration : 1 h 50 min
Bit rate : 38 b/s
Count of elements : 1097
Stream size : 31.3 KiB (0%)
Title : Full
Language : English
Default : No
Forced : No

Text #3
ID : 6
Format : UTF-8
Codec ID : S_TEXT/UTF8
Codec ID/Info : UTF-8 Plain Text
Duration : 1 h 54 min
Bit rate : 45 b/s
Count of elements : 1337
Stream size : 37.8 KiB (0%)
Title : SDH
Language : English
Default : No
Forced : No

Menu
00:00:00.000 : :Chapter 01
00:11:00.743 : :Chapter 02
00:14:58.772 : :Chapter 03
00:20:56.380 : :Chapter 04
00:31:38.897 : :Chapter 05
00:49:18.205 : :Chapter 06
00:55:32.495 : :Chapter 07
01:07:35.217 : :Chapter 08
01:17:13.462 : :Chapter 09
01:31:15.595 : :Chapter 10
01:41:01.055 : :Chapter 11
01:53:06.780 : :Chapter 12






   Похожие торренты   Торрент   Размер 
В этой теме нет новых непрочитанных сообщений. Ниже холма 60 / Beneath Hill 60 (2010) BDRip-AVC от New-Team | L2

70 | 4

748.55 МБ

В этой теме нет новых непрочитанных сообщений. Ниже холма 60 / Beneath Hill 60 (2010) BDRip-AVC от New-Team | L2

30 | 4

1.46 ГБ

В этой теме нет новых непрочитанных сообщений. Ниже холма 60 / Beneath Hill 60 (2010) ВDRip 720р | L2, L1

68 | 1

4.36 ГБ

В этой теме нет новых непрочитанных сообщений. Приключения на Багамах / Beneath the Blue (2010) BDRip-AVC | P

68 | 23

1.99 ГБ

В этой теме нет новых непрочитанных сообщений. Приключения на Багамах / Beneath the Blue (2010) BDRip 1080p от Koenig

1 | 0

6.16 ГБ

В этой теме нет новых непрочитанных сообщений. Государственная защита (1-3 сезоны 1-40 серии из 40) (Александр Устюгов, Алан Дзоциев) [2010-2013, детектив, криминал, WEBRip-AVC, HDTVRip-AVC]

3 | 1

23.87 ГБ

В этой теме нет новых непрочитанных сообщений. Этажом ниже / The Ones Below (2015) BDRip-AVC | L1

1 | 0

743.12 МБ




Вы не можете начинать темы
Вы не можете отвечать на сообщения
Вы не можете редактировать свои сообщения
Вы не можете удалять свои сообщения
Вы не можете добавлять вложения

Перейти:  
 Вход
ppkBB3cker v.2 © 2008-2014 @ PPK
[ Time : 0.030s | 16 Queries | GZIP : Off ]

cron