img image001 image001 image001 image001 image001 image001 image001 image001 image001 image001 image001 image001 image001 image001 image001

Planets Sun Sun Sun
Статистика раздачи
Автор: PriZraK | Размер: 748.55 МБ | Добавлен: 13 авг 2019
Раздают: 70    Качают: 4
Скачать торрент
Скачать торрент
Описание торрента

СообщениеДобавлено: 13 авг 2019 

Ниже холма 60
Beneath Hill 60

«After Gallipoli there was still a war to be won»




Страна: Австралия
Жанр: драма, военный, история
Год выпуска: 2010
Продолжительность: 02:02:12

Перевод: Любительский (двухголосый, закадровый) ["Чип и Дейл"]
Субтитры: нет
Оригинальная аудиодорожка: нет

Режиссер: Джереми Симс / Jeremy Sims

В ролях: Брендан Коуэлл, Алан Дьюкс, Алекс Томпсон, Харрисон Гилбертсон, Дункан Янг, Стив Ле Маркванд, Гайтон Грантли, Уорвик Янг, Марк Коулз Смит, Мартин Томас

Описание: К 1916 году Первая мировая война достигла патовой ситуации. Линия фронта протянулась от Ламанша до Швейцарских Альп. Погибли миллион людей. В попытке что-то изменить шахтеры, гражданские люди спустились в тоннели под расположением врага. Началась тайная, безмолвная, подземная война... Фильм основан на реальных событиях.



Релиз:

Автор рипа: stalkerok

Сэмпл

Качество видео: BDRip-AVC | Исходник: Beneath.Hill.60.2010.BluRay.FREEDONOR.NNM_VIDEO
Формат видео: MKV
Видео кодек: AVC
Аудио кодек: AAC
Видео: AVC, 801 Кбит/сек, 724x302 (2.40:1), 23,976 кадр/сек
Аудио: AAC, 54 Кбит/сек, 48 КГц, 2.0 - русский
Навигация по главам: есть


---[Information] [12.08.2019 14:20:34] x264 [info]: frame I:1350 Avg QP:17.30 size: 31410
---[Information] [12.08.2019 14:20:34] x264 [info]: frame P:36383 Avg QP:20.66 size: 9155
---[Information] [12.08.2019 14:20:34] x264 [info]: frame B:138063 Avg QP:22.06 size: 2596

General
Unique ID : 83767276555216985937401071769959770069 (0x3F04FD99C7AB42A9D872FCC96C87A7D5)
Complete name : C:tempBeneath Hill 60Beneath.Hill.60.2010.BDRip.x264.Rus.stalkerok.New-Team.mkv
Format : Matroska
Format version : Version 4
File size : 749 MiB
Duration : 2 h 2 min
Overall bit rate : 856 kb/s
Movie name : Beneath Hill 60 (2010) | Rip by stalkerok
Encoded date : UTC 2019-08-12 11:36:02
Writing application : mkvmerge v33.1.0 ('Primrose') 64-bit
Writing library : libebml v1.3.7 + libmatroska v1.5.0

Video
ID : 1
Format : AVC
Format/Info : Advanced Video Codec
Format profile : High@L4.1
Format settings : CABAC / 12 Ref Frames
Format settings, CABAC : Yes
Format settings, RefFrames : 12 frames
Codec ID : V_MPEG4/ISO/AVC
Duration : 2 h 2 min
Bit rate : 801 kb/s
Width : 724 pixels
Height : 302 pixels
Display aspect ratio : 2.40:1
Frame rate mode : Constant
Frame rate : 23.976 (24000/1001) FPS
Color space : YUV
Chroma subsampling : 4:2:0
Bit depth : 8 bits
Scan type : Progressive
Bits/(Pixel*Frame) : 0.153
Stream size : 700 MiB (93%)
Title : Beneath Hill 60 (2010) | Rip by stalkerok
Writing library : x264 core 158 r2984+49 6932f4a t_mod_New [0-bit@all X86_64]
Encoding settings : cabac=1 / ref=12 / deblock=1:-2:-1 / analyse=0x3:0x133 / me=umh / subme=11 / psy=1 / fade_compensate=0.00 / psy_rd=1.00:0.00 / mixed_ref=1 / me_range=32 / chroma_me=1 / trellis=2 / 8x8dct=1 / cqm=0 / deadzone=21,11 / fast_pskip=0 / chroma_qp_offset=-2 / threads=9 / lookahead_threads=2 / sliced_threads=0 / nr=0 / decimate=0 / interlaced=0 / bluray_compat=0 / constrained_intra=0 / fgo=0 / bframes=15 / b_pyramid=2 / b_adapt=2 / b_bias=0 / direct=3 / weightb=1 / open_gop=0 / weightp=2 / keyint=240 / keyint_min=23 / scenecut=40 / intra_refresh=0 / rc_lookahead=60 / rc=2pass / mbtree=0 / bitrate=801 / ratetol=1.0 / qcomp=0.65 / qpmin=0:0:0 / qpmax=69:69:69 / qpstep=4 / cplxblur=20.0 / qblur=0.5 / vbv_maxrate=50000 / vbv_bufsize=62500 / nal_hrd=none / filler=0 / ip_ratio=1.40 / pb_ratio=1.30 / aq=3:1.00 / aq-sensitivity=10.00 / aq-factor=1.00:1.00:1.00 / aq2=0 / aq3=0 / zones=170400,175795,q=34
Default : Yes
Forced : No

Audio
ID : 2
Format : AAC LC SBR PS
Format/Info : Advanced Audio Codec Low Complexity with Spectral Band Replication and Parametric Stereo
Commercial name : HE-AACv2
Format settings : Explicit
Codec ID : A_AAC-2
Duration : 2 h 2 min
Bit rate : 54.0 kb/s
Channel(s) : 2 channels
Channel layout : C
Sampling rate : 48.0 kHz
Frame rate : 23.438 FPS (2048 SPF)
Compression mode : Lossy
Delay relative to video : 11 ms
Stream size : 47.2 MiB (6%)
Title : DVO "Чип и Дейл"
Language : Russian
Default : Yes
Forced : No

Menu
00:00:00.000 : :Chapter 01
00:11:00.743 : :Chapter 02
00:14:58.772 : :Chapter 03
00:20:56.380 : :Chapter 04
00:31:38.897 : :Chapter 05
00:49:18.205 : :Chapter 06
00:55:32.495 : :Chapter 07
01:07:35.217 : :Chapter 08
01:17:13.462 : :Chapter 09
01:31:15.595 : :Chapter 10
01:41:01.055 : :Chapter 11
01:53:06.780 : :Chapter 12






   Похожие торренты   Торрент   Размер 
В этой теме нет новых непрочитанных сообщений. Ниже холма 60 / Beneath Hill 60 (2010) BDRip-AVC от New-Team | L2

98 | 5

2.86 ГБ

В этой теме нет новых непрочитанных сообщений. Ниже холма 60 / Beneath Hill 60 (2010) BDRip-AVC от New-Team | L2

30 | 4

1.46 ГБ

В этой теме нет новых непрочитанных сообщений. Ниже холма 60 / Beneath Hill 60 (2010) ВDRip 720р | L2, L1

68 | 1

4.36 ГБ

В этой теме нет новых непрочитанных сообщений. Приключения на Багамах / Beneath the Blue (2010) BDRip-AVC | P

68 | 23

1.99 ГБ

В этой теме нет новых непрочитанных сообщений. Приключения на Багамах / Beneath the Blue (2010) BDRip 1080p от Koenig

1 | 0

6.16 ГБ

В этой теме нет новых непрочитанных сообщений. Государственная защита (1-3 сезоны 1-40 серии из 40) (Александр Устюгов, Алан Дзоциев) [2010-2013, детектив, криминал, WEBRip-AVC, HDTVRip-AVC]

3 | 1

23.87 ГБ

В этой теме нет новых непрочитанных сообщений. Этажом ниже / The Ones Below (2015) BDRip-AVC | L1

1 | 0

743.12 МБ




Вы не можете начинать темы
Вы не можете отвечать на сообщения
Вы не можете редактировать свои сообщения
Вы не можете удалять свои сообщения
Вы не можете добавлять вложения

Перейти:  
 Вход
ppkBB3cker v.2 © 2008-2014 @ PPK
[ Time : 0.050s | 16 Queries | GZIP : Off ]

cron