img image001 image001 image001 image001 image001 image001 image001 image001 image001 image001 image001 image001 image001 image001 image001

Planets Sun Sun Sun
Статистика раздачи
Автор: PriZraK | Размер: 1.45 ГБ | Добавлен: 13 авг 2019
Раздают: 46    Качают: 2
Скачать торрент
Скачать торрент
Описание торрента

СообщениеДобавлено: 13 авг 2019 

Информация о фильме
Название: Забирая жизни
Оригинальное название: Taking Lives
Год выхода: 2004
Жанр: триллер, детектив
Режиссер: Д. Дж. Карузо / D.J. Caruso
В ролях: Анджелина Джоли, Итан Хоук, Кифер Сазерленд, Джина Роулендс, Оливье Мартинес, Чеки Карио, Жан-Юг Англад, Пол Дано, Джастин Чэтвин, Андре Лакосте

О фильме:
Ловкий и неуловимый убийца около двадцати лет ускользает от правосудия, живя жизнью своих жертв. Он использует их имена, кредитки, счета и даже платит за них налоги, создавая видимость жизни своих жертв. Детективы Монреаля, ведущие расследование сложного преступления зашли в тупик, будучи не в состоянии понять мотивы серийного убийцы. Дело передают агенту ФБР Иллиане Скотт, которая использует нетрадиционный подход в расследовании дел.

Страна: США, Канада, Австралия
Студия: Warner Bros. Pictures, Atmosphere Entertainment MM LLC
Продолжительность: 01:42:57
Перевод: Дублированный (Лицензия)

Файл
Качество: WEBRip [Open Matte Version]
Формат: AVI
Видео:XviD, 720x400 (16:9), 23.976 fps, 1629 Кбит/сек (0.236 bit/pixel)
Аудио : AC-3, 48,0 КГц, 6 ch, 384 Кбит/сек, CBR | | Русский Дубляж
Субтитры: Отсутствуют

Общее
Полное имя : Забирая.Жизни.2004.RUS.Dub.WEBRip.Open.Matte.Deadmauvlad.1.46.GB.avi
Формат : AVI
Формат/Информация : Audio Video Interleave
Размер файла : 1,45 Гбайт
Продолжительность : 1 ч. 42 м.
Общий поток : 2022 Кбит/сек
Название фильма : Забирая.Жизни.2004.RUS.Dub.WEBRip.Open.Matte.Deadmauvlad.1.46.GB
Режиссёр : Encoder by Deadmauvlad
Жанр : триллер, детектив
Программа кодирования : VirtualDubMod 1.5.10.3 | www.virtualdub-fr.org || (build 2550/release)
Формат оригинала/Имя : Фильм
Авторское право : Encoder by Deadmauvlad
Примечание : Open Matte Version

Видео
Идентификатор : 0
Формат : MPEG-4 Visual
Профиль формата : Advanced Simple@L5
Настройки формата : BVOP1 / Custom Matrix
Параметр BVOP формата : 1
Параметр QPel формата : Нет
Параметр GMC формата : Без точки перехода
Параметр матрицы формата : Выборочная
Идентификатор кодека : XVID
Идентификатор кодека/Подсказка : XviD
Продолжительность : 1 ч. 42 м.
Битрейт : 1629 Кбит/сек
Ширина : 720 пикселей
Высота : 400 пикселей
Соотношение сторон : 16:9
Частота кадров : 23,976 (24000/1001) кадра/сек
Цветовое пространство : YUV
Субдискретизация насыщенности : 4:2:0
Битовая глубина : 8 бит
Тип развёртки : Прогрессивная
Метод сжатия : С потерями
Бит/(Пиксели*Кадры) : 0.236
Размер потока : 1,17 Гбайт (81%)
Библиотека кодирования : XviD 67

Аудио
Идентификатор : 1
Формат : AC-3
Формат/Информация : Audio Coding 3
Коммерческое название : Dolby Digital
Идентификатор кодека : 2000
Продолжительность : 1 ч. 42 м.
Вид битрейта : Постоянный
Битрейт : 384 Кбит/сек
Каналы : 6 каналов
Channel layout : L R C LFE Ls Rs
Частота : 48,0 КГц
Частота кадров : 31,250 кадров/сек (1536 SPF)
Битовая глубина : 16 бит
Метод сжатия : С потерями
Размер потока : 282 Мбайт (19%)
Выравнивание : Разделение по промежуткам
Продолжительность промежутка : 42 мс. (1,00 видеокадр)
Время предзагрузки промежутка : 500 мс.





   Похожие торренты   Торрент   Размер 
В этой теме нет новых непрочитанных сообщений. Забирая жизни / Taking Lives (2004) BDRemux 1080p | Режиссерская версия / Director's Cut

54 | 12

17 ГБ

В этой теме нет новых непрочитанных сообщений. Забирая жизни / Taking Lives (2004) BDRip 720p от KinoGadget | Режиссерская версия | iPad | D

32 | 2

1.64 ГБ

В этой теме нет новых непрочитанных сообщений. Чужой против Хищника / AVP: Alien vs. Predator (2004) WEB-DL 1080p | D, P, P2, A | Театральная версия | Open Matte

6 | 0

11.9 ГБ

В этой теме нет новых непрочитанных сообщений. Соучастник / Collateral (2004) SATRip от Deadmauvlad | P | Open Matte

108 | 18

1.46 ГБ

В этой теме нет новых непрочитанных сообщений. Соучастник / Collateral (2004) SATRip от Deadmauvlad | P | Open Matte

14 | 7

1.46 ГБ

В этой теме нет новых непрочитанных сообщений. Хроники Риддика / The Chronicles of Riddick (2004) HDTVRip от Deadmauvlad | D | Open Matte

797 | 36

1.45 ГБ

В этой теме нет новых непрочитанных сообщений. Хэнкок / Hancock (2008) WEB-DLRip от Scarabey | Театральная версия | Open Matte | D

18 | 2

1.44 ГБ




Вы не можете начинать темы
Вы не можете отвечать на сообщения
Вы не можете редактировать свои сообщения
Вы не можете удалять свои сообщения
Вы не можете добавлять вложения

Перейти:  
 Вход
ppkBB3cker v.2 © 2008-2014 @ PPK
[ Time : 0.037s | 16 Queries | GZIP : Off ]

cron