img image001 image001 image001 image001 image001 image001 image001 image001 image001 image001 image001 image001 image001 image001 image001

Planets Sun Sun Sun
Статистика раздачи
Автор: PriZraK | Размер: 5.05 ГБ | Добавлен: 13 авг 2019
Раздают: 20    Качают: 6
Скачать торрент
Скачать торрент
Описание торрента

СообщениеДобавлено: 13 авг 2019 

Информация о фильме
Название: Детоксикация
Оригинальное название: D-Tox
Год выхода: 2002
Жанр: боевик, триллер, драма, криминал, детектив

Режиссер: Джим Гиллеспи / Jim Gillespie
В ролях: Сильвестр Сталлоне, Чарльз С. Даттон, Полли Уокер, Крис Кристофферсон, Миф, Кристофер Фулфорд, Джеффри Райт, Том Беренджер, Стивен Лэнг, Алан С. Петерсон, Хротгар Мэтьюз, Анджела Альварадо, Роберт Проски, Роберт Патрик, Кортни Б. Вэнс, Шон Патрик Флэнери, Тим Генри, Дина Мейер, Рэнс Ховард, Фрэнк Пеллегрино, Джеймс Кидни, Ив Камерон, Харрисон Коу, Питер Флемминг, Крис Нельсон Норрис, Билл МакКензи, Йен Гшвинд, Дэвид Льюис, Джон Тимоти Ботка, Джеймс Ральф

О фильме:
Агент ФБР Джейк Малой стал свидетелем зверского убийства. Джейку так и не удалось справиться с пережитым шоком: он начинает искать забвение в алкоголе. Пытаясь вернуться к нормальной жизни, агент соглашается пройти детоксикацию в закрытой клинике для «опустившихся» полицейских. Клиника отрезана от внешнего мира и расположена глубоко в заснеженном лесу. Здесь проходит курс лечения разношерстная группа пациентов — служителей закона «с отклонениями».

Однако эта компания так и не успеет излечиться от пагубных пристрастий: их пребывание в клинике превращается в жуткий и кровавый кошмар. Мрачные стены лечебницы содрогаются от невероятных по своей жестокости убийств. Кто-то начинает умерщвлять обитателей клиники одного за другим. И, что самое страшное, агент Малой узнает почерк убийцы…



Страна: Германия, США
Продолжительность: 01:35:44
Перевод: Профессиональный (многоголосый, закадровый) 2 варианта
Перевод: Профессиональный (двухголосый, закадровый) Петр Гланц, Инна Королева
Перевод: Любительский (двухголосый, закадровый)
Перевод: Авторский (одноголосый, закадровый) 3 варианта

Файл
Формат: MKV
Качество: BDRip 720p
Видео: x.264, 1280x544, 4807 kbps, 23.976 fps, 0.288 bpf
Звук:
Аудио 1: AC3, 448 kbps, 6 channels, 48000 Hz - MVO (CEE)
Аудио 2: AC3, 192 kbps, 2 channels, 48000 Hz - MVO (Первый канал)
Аудио 3: AC3, 192 kbps, 2 channels, 48000 Hz - DVO
Аудио 4: AC3, 448 kbps, 6 channels, 48000 Hz - DVO (Петр Гланц и Инна Королева)
Аудио 5: AC3, 448 kbps, 6 channels, 48000 Hz - ENG
Аудио 6: AC3, 384 kbps, 6 channels, 48000 Hz - AVO (Гаврилов)отдельным файлом
Аудио 7: AC3, 192 kbps, 2 channels, 48000 Hz - AVO (Рябов) отдельным файлом
Аудио 8: AC3, 448 kbps, 6 channels, 48000 Hz - AVO (Гаевский) отдельным файлом
Субтитры: SRT - русские, английские

x264 [info]: frame I:1023 Avg QP:14.29 size: 90232
x264 [info]: frame P:27217 Avg QP:16.27 size: 43084
x264 [info]: frame B:109496 Avg QP:18.37 size: 19930
x264 [info]: consecutive B-frames: 2.0% 2.5% 5.5% 14.9% 12.9% 38.7% 6.2% 6.6% 2.0% 1.9% 1.5% 2.7% 1.1% 0.8% 0.7%

=============================================================================
Format : Matroska
Format version : Version 2
File size : 4.37 GiB
Duration : 1 h 35 min
Overall bit rate : 6 532 kb/s
Movie name : Детоксикация / D-Tox (2002) BDRip 720p
Encoded date : UTC 2018-02-24 12:23:11
Writing application : mkvmerge v8.3.0 ('Over the Horizon') 32bit
Writing library : libebml v1.3.1 + libmatroska v1.4.2
Cover : Yes
Attachments : cover.jpg

Video
ID : 1
Format : AVC
Format/Info : Advanced Video Codec
Format profile : High@L4.1
Format settings : CABAC / 12 Ref Frames
Format settings, CABAC : Yes
Format settings, RefFrames : 12 frames
Codec ID : V_MPEG4/ISO/AVC
Duration : 1 h 35 min
Bit rate : 4 807 kb/s
Width : 1 280 pixels
Height : 544 pixels
Display aspect ratio : 2.35:1
Frame rate mode : Constant
Frame rate : 23.976 (24000/1001) FPS
Color space : YUV
Chroma subsampling : 4:2:0
Bit depth : 8 bits
Scan type : Progressive
Bits/(Pixel*Frame) : 0.288
Stream size : 3.13 GiB (72%)
Writing library : x264 core 155 r2901 7d0ff22
Encoding settings : cabac=1 / ref=12 / deblock=1:-3:-3 / analyse=0x3:0x133 / me=umh / subme=10 / psy=1 / psy_rd=1.05:0.10 / mixed_ref=1 / me_range=32 / chroma_me=1 / trellis=2 / 8x8dct=1 / cqm=0 / deadzone=21,11 / fast_pskip=0 / chroma_qp_offset=-3 / threads=6 / lookahead_threads=1 / sliced_threads=0 / nr=0 / decimate=1 / interlaced=0 / bluray_compat=0 / constrained_intra=0 / bframes=14 / b_pyramid=2 / b_adapt=2 / b_bias=0 / direct=1 / weightb=1 / open_gop=0 / weightp=2 / keyint=240 / keyint_min=23 / scenecut=40 / intra_refresh=0 / rc_lookahead=120 / rc=2pass / mbtree=0 / bitrate=4807 / ratetol=1.0 / qcomp=0.60 / qpmin=0 / qpmax=69 / qpstep=4 / cplxblur=20.0 / qblur=0.5 / vbv_maxrate=50000 / vbv_bufsize=62500 / nal_hrd=none / filler=0 / ip_ratio=1.40 / pb_ratio=1.30 / aq=3:1.00
Language : English
Default : Yes
Forced : No

Audio #1
ID : 2
Format : AC-3
Format/Info : Audio Coding 3
Codec ID : A_AC3
Duration : 1 h 35 min
Bit rate mode : Constant
Bit rate : 448 kb/s
Channel(s) : 6 channels
Channel positions : Front: L C R, Side: L R, LFE
Sampling rate : 48.0 kHz
Frame rate : 31.250 FPS (1536 SPF)
Bit depth : 16 bits
Compression mode : Lossy
Stream size : 307 MiB (7%)
Title : MVO - CEE
Language : Russian
Service kind : Complete Main
Default : Yes
Forced : No

Audio #2
ID : 3
Format : AC-3
Format/Info : Audio Coding 3
Codec ID : A_AC3
Duration : 1 h 35 min
Bit rate mode : Constant
Bit rate : 192 kb/s
Channel(s) : 2 channels
Channel positions : Front: L R
Sampling rate : 48.0 kHz
Frame rate : 31.250 FPS (1536 SPF)
Bit depth : 16 bits
Compression mode : Lossy
Stream size : 131 MiB (3%)
Title : MVO - Первый канал
Language : Russian
Service kind : Complete Main
Default : No
Forced : No

Audio #3
ID : 4
Format : AC-3
Format/Info : Audio Coding 3
Codec ID : A_AC3
Duration : 1 h 35 min
Bit rate mode : Constant
Bit rate : 192 kb/s
Channel(s) : 2 channels
Channel positions : Front: L R
Sampling rate : 48.0 kHz
Frame rate : 31.250 FPS (1536 SPF)
Bit depth : 16 bits
Compression mode : Lossy
Stream size : 131 MiB (3%)
Title : DVO
Language : Russian
Service kind : Complete Main
Default : No
Forced : No

Audio #4
ID : 5
Format : AC-3
Format/Info : Audio Coding 3
Codec ID : A_AC3
Duration : 1 h 35 min
Bit rate mode : Constant
Bit rate : 448 kb/s
Channel(s) : 6 channels
Channel positions : Front: L C R, Side: L R, LFE
Sampling rate : 48.0 kHz
Frame rate : 31.250 FPS (1536 SPF)
Bit depth : 16 bits
Compression mode : Lossy
Stream size : 307 MiB (7%)
Title : DVO - Петр Гланц и Инна Королева
Language : Russian
Service kind : Complete Main
Default : No
Forced : No

Audio #5
ID : 6
Format : AC-3
Format/Info : Audio Coding 3
Codec ID : A_AC3
Duration : 1 h 35 min
Bit rate mode : Constant
Bit rate : 448 kb/s
Channel(s) : 6 channels
Channel positions : Front: L C R, Side: L R, LFE
Sampling rate : 48.0 kHz
Frame rate : 31.250 FPS (1536 SPF)
Bit depth : 16 bits
Compression mode : Lossy
Stream size : 307 MiB (7%)
Language : English
Service kind : Complete Main
Default : No
Forced : No

Text #1
ID : 7
Format : UTF-8
Codec ID : S_TEXT/UTF8
Codec ID/Info : UTF-8 Plain Text
Language : Russian
Default : No
Forced : No

Text #2
ID : 8
Format : UTF-8
Codec ID : S_TEXT/UTF8
Codec ID/Info : UTF-8 Plain Text
Language : English
Default : No
Forced : No

Menu
00:00:00.000 : en:00:00:00.000
00:03:18.824 : en:00:03:18.824
00:09:02.834 : en:00:09:02.834
00:16:05.548 : en:00:16:05.548
00:20:18.676 : en:00:20:18.676
00:24:21.418 : en:00:24:21.418
00:31:14.331 : en:00:31:14.331
00:35:17.907 : en:00:35:17.907
00:40:20.752 : en:00:40:20.752
00:45:36.651 : en:00:45:36.651
00:52:41.075 : en:00:52:41.075
00:58:17.452 : en:00:58:17.452
01:04:26.321 : en:01:04:26.321
01:09:36.422 : en:01:09:36.422
01:16:10.941 : en:01:16:10.941
01:22:41.081 : en:01:22:41.081
01:25:57.986 : en:01:25:57.986
01:31:41.454 : en:01:31:41.454

   Похожие торренты   Торрент   Размер 
В этой теме нет новых непрочитанных сообщений. Новогодний концерт Венского филармонического оркестра 2002 / Neujahrskonzert der Wiener Philharmoniker 2002 (2002) BDRip 720p от ivandubskoj

32 | 1

4.38 ГБ

В этой теме нет новых непрочитанных сообщений. Ра-Зефон / RahXephon [01-26 из 26 + спэшл + OVA] (2002-2003) BDRip 1080, BDRip 720p

0 | 3

18 ГБ

В этой теме нет новых непрочитанных сообщений. Глубина / Below (2002) BDRip 720p | D, P, P2

6 | 0

8.84 ГБ

В этой теме нет новых непрочитанных сообщений. Глубина / Below (2002) BDRip 720p | D

9 | 3

3.54 ГБ

В этой теме нет новых непрочитанных сообщений. Щит / The Shield [S01] (2002) BDRip 720p | СТС

4 | 0

29.19 ГБ

В этой теме нет новых непрочитанных сообщений. Глубина / Below (2002) BDRip 720p | D

0 | 0

4.65 ГБ

В этой теме нет новых непрочитанных сообщений. Глубина / Below (2002) BDRip 720p | D

0 | 0

4.65 ГБ




Вы не можете начинать темы
Вы не можете отвечать на сообщения
Вы не можете редактировать свои сообщения
Вы не можете удалять свои сообщения
Вы не можете добавлять вложения

Перейти:  
 Вход
ppkBB3cker v.2 © 2008-2014 @ PPK
[ Time : 0.022s | 16 Queries | GZIP : Off ]

cron