img image001 image001 image001 image001 image001 image001 image001 image001 image001 image001 image001 image001 image001 image001 image001

Planets Sun Sun Sun
Статистика раздачи
Автор: PriZraK | Размер: 11.54 ГБ | Добавлен: 13 авг 2019
Раздают: 106    Качают: 27
Скачать торрент
Скачать торрент
Описание торрента

СообщениеДобавлено: 13 авг 2019 

Информация о фильме
Название: Сквозь горизонт
Оригинальное название: Event Horizon
Год выхода: 1997
Жанр: Фантастика, триллер, ужасы
Режиссер: Пол У.С. Андерсон
В ролях: Лоуренс Фишборн, Сэм Нилл, Кэтлин Куинлен, Джоэли Ричардсон, Ричард Т. Джонс, Джек Ноузворфи, Джейсон Айзекс, Шон Пертуи, Питер Маринкер, Холли Чэнт, Барклай Райт, Ной Хантли, Роберт Йезек, Эмили Бут, Тереза Мэй

О фильме:
2047 год. Спасательный космический корабль послан к границе Солнечной системы с целью выяснить, что произошло с экипажем первого звездолета "Ивент Хорайзон", созданного для путешествий со сверхсветовой скоростью и бесследно исчезнувшего при первом же полете. Внезапно появившийся из ниоткуда, он был обнаружен возле далекой планеты Нептун. Шаг за шагом находя ответы на свои вопросы, команда начинает поддаваться чувству жуткого страха и ужаса, глубина которых соизмерима только с бескрайними просторами космоса...


Страна: США
Студия: Golar Productions, Impact Pictures, Paramount Pictures
Продолжительность: 01:35:57
Перевод: Многоголосый, Двухголосый, Авторский

Файл
Качество: BDRip-HEVC 1080p
Видео: HEVC/x.265, 1920x754, ~13.5 Mb/s
Аудио 1: AC3, 6 ch, 448 Kbps Многоголосый (Киномания)
Аудио 2: AC3, 6 ch, 384 Kbps Двухголосый (Премьер видео)
Аудио 3: AC3, 2 ch, 192 Kbps Многоголосый (Селена интернешенел)
Аудио 4: AC3, 6 ch, 448 Kbps Двухголосый (П.Гланц и И.Королёва)
Аудио 5: AC3, 6 ch, 448 Kbps Авторский (Ю.Живов)
Аудио 6: AC3, 6 ch, 448 Kbps Авторский (В.Горчаков)
Аудио 7: AC3, 6 ch, 448 Kbps Авторский (А.Гаврилов)
Аудио 8: AC3, 6 ch, 448 Kbps Авторский (С.Визгунов)
Аудио 9: AC3, 6 ch, 448 Kbps (Оригинал)
Субтитры: Русские, Английские

General
Unique ID : 234155889091625261059756155415918489349 (0xB028C8AA1B3D64F8B326496E86FB2F05)
Complete name : E:[HEVC]Event Horizon (1997) BDRip 1080p [HEVC] 10bit.mkv
Format : Matroska
Format version : Version 4
File size : 11.5 GiB
Duration : 1 h 35 min
Overall bit rate : 17.2 Mb/s
Movie name : Сквозь горизонт
Track name/Position : 3/5
Deion : Название фильма: Сквозь горизонт. Высокотехнологичный исследовательский космический корабль загадочным образом бесследно растворился в ходе первого рейса семь лет назад. Но слабый постоянный сигнал с давно потерянного корабля подсказывает путь спасательному экипажу, которым руководит капитан Миллер (Лоуренс Фишбёрн, "Матрица" и "Миссия невыполнима III"), пытающийся пройти через галактику в ходе отважной спасательной миссии. Миллеру помогает его отборный экипаж и создатель потерянного корабля (Сэм Нилл, "Парк Юрского периода"). Их цель — найти и спасти самую современную угрозу галактики. Кэтлин Квинлан ("Аполлон 13") и Джойли Ричардсон ("Части тела") также снимаются в этом захватывающем научно-фантастическом триллере.
Encoded date : UTC 2019-08-13 13:12:14
Writing application : mkvmerge v35.0.0 ('All The Love In The World') 64-bit
Writing library : libebml v1.3.9 + libmatroska v1.5.2 / Lavf57.71.100
Attachments : poster.jpg / poster.jpg
ALBUM : Sci-Fi 5 Film Collection
DATE : 1998-02-25
DISC : 1/1
ENCODING_INFO : MATROSKA,WEBM > MKV / H264 > X265 CRF 18.0 Medium
GENRE : Ужасы
HD_VIDEO : 1
ITUNEXTC : ru-movie|18+|400|
Language : und
MEDIA_TYPE : 9
SYNOPSIS : Название фильма: Сквозь горизонт. Высокотехнологичный исследовательский космический корабль загадочным образом бесследно растворился в ходе первого рейса семь лет назад. Но слабый постоянный сигнал с давно потерянного корабля подсказывает путь спасательному экипажу, которым руководит капитан Миллер (Лоуренс Фишбёрн, "Матрица" и "Миссия невыполнима III"), пытающийся пройти через галактику в ходе отважной спасательной миссии. Миллеру помогает его отборный экипаж и создатель потерянного корабля (Сэм Нилл, "Парк Юрского периода"). Их цель — найти и спасти самую современную угрозу галактики. Кэтлин Квинлан ("Аполлон 13") и Джойли Ричардсон ("Части тела") также снимаются в этом захватывающем научно-фантастическом триллере.

Video
ID : 1
Format : HEVC
Format/Info : High Efficiency Video Coding
Format profile : Main 10@L4.1@High
Codec ID : V_MPEGH/ISO/HEVC
Duration : 1 h 35 min
Bit rate : 13.5 Mb/s
Width : 1 920 pixels
Height : 754 pixels
Display aspect ratio : 2.546
Frame rate mode : Constant
Frame rate : 23.976 (24000/1001) FPS
Color space : YUV
Chroma subsampling : 4:2:0
Bit depth : 10 bits
Bits/(Pixel*Frame) : 0.389
Stream size : 9.05 GiB (78%)
Title : Event.Horizon.1997.REMASTERED.1080p.BluRay.REMUX.AVC.TrueHD.5.1-FGT
Writing library : x265 3.1+7-147fb92c5ed5:[Windows][clang 8.0.0][64 bit] 10bit
Encoding settings : cpuid=1111039 / frame-threads=13 / wpp / no-pmode / no-pme / no-psnr / no-ssim / log-level=3 / input-csp=1 / input-res=1920x754 / interlace=0 / total-frames=0 / level-idc=41 / high-tier=1 / uhd-bd=0 / ref=5 / allow-non-conformance / no-repeat-headers / annexb / no-aud / no-hrd / info / hash=0 / no-temporal-layers / open-gop / min-keyint=23 / keyint=240 / gop-lookahead=0 / bframes=8 / b-adapt=2 / b-pyramid / bframe-bias=0 / rc-lookahead=60 / lookahead-slices=4 / scenecut=40 / radl=0 / no-splice / no-intra-refresh / ctu=64 / min-cu-size=8 / rect / amp / max-tu-size=32 / tu-inter-depth=4 / tu-intra-depth=4 / limit-tu=0 / rdoq-level=2 / dynamic-rd=0.00 / no-ssim-rd / signhide / no-tskip / nr-intra=0 / nr-inter=0 / no-constrained-intra / no-strong-intra-smoothing / max-merge=5 / limit-refs=2 / limit-modes / me=3 / subme=7 / merange=57 / temporal-mvp / no-hme / weightp / weightb / no-analyze-src-pics / deblock=-3:-3 / no-sao / no-sao-non-deblock / rd=6 / early-skip / no-rskip / no-fast-intra / no-tskip-fast / no-cu-lossless / b-intra / no-splitrd-skip / rdpenalty=0 / psy-rd=2.00 / psy-rdoq=1.00 / no-rd-refine / no-lossless / cbqpoffs=0 / crqpoffs=0 / rc=crf / crf=18.0 / qcomp=0.60 / qpstep=4 / stats-write=0 / stats-read=0 / vbv-maxrate=50000 / vbv-bufsize=50000 / vbv-init=0.9 / crf-max=30.0 / crf-min=0.0 / ipratio=1.40 / pbratio=1.30 / aq-mode=2 / aq-strength=1.00 / no-cutree / zone-count=0 / no-strict-cbr / qg-size=32 / no-rc-grain / qpmax=69 / qpmin=0 / no-const-vbv / sar=1 / overscan=0 / videoformat=5 / range=0 / colorprim=1 / transfer=1 / colormatrix=1 / chromaloc=0 / display-window=0cll=0,0 / min-luma=0 / max-luma=1023 / log2-max-poc-lsb=8 / vui-timing-info / vui-hrd-info / slices=1 / no-opt-qp-pps / no-opt-ref-list-length-pps / no-multi-pass-opt-rps / scenecut-bias=0.05 / no-opt-cu-delta-qp / no-aq-motion / no-hdr / no-hdr-opt / no-dhdr10-opt / no-idr-recovery-sei / analysis-reuse-level=5 / scale-factor=0 / refine-intra=0 / refine-inter=0 / refine-mv=0 / refine-ctu-distortion=0 / no-limit-sao / ctu-info=0 / no-lowpass-dct / refine-analysis-type=267 / copy-pic=1 / max-ausize-factor=1.0 / no-dynamic-refine / no-single-sei / no-hevc-aq / no-svt / no-field / qp-adaptation-range=1.00
Default : Yes
Forced : No
Color range : Limited
Color primaries : BT.709
Transfer characteristics : BT.709
Matrix coefficients : BT.709

Audio #1
ID : 2
Format : AC-3
Format/Info : Audio Coding 3
Commercial name : Dolby Digital
Codec ID : A_AC3
Duration : 1 h 35 min
Bit rate mode : Constant
Bit rate : 448 kb/s
Channel(s) : 6 channels
Channel layout : L R C LFE Ls Rs
Sampling rate : 48.0 kHz
Frame rate : 31.250 FPS (1536 SPF)
Bit depth : 16 bits
Compression mode : Lossy
Stream size : 307 MiB (3%)
Title : MVO - Киномания / Superbit
Language : Russian
Service kind : Complete Main
Default : Yes
Forced : No

Audio #2
ID : 3
Format : AC-3
Format/Info : Audio Coding 3
Commercial name : Dolby Digital
Codec ID : A_AC3
Duration : 1 h 35 min
Bit rate mode : Constant
Bit rate : 384 kb/s
Channel(s) : 6 channels
Channel layout : L R C LFE Ls Rs
Sampling rate : 48.0 kHz
Frame rate : 31.250 FPS (1536 SPF)
Bit depth : 16 bits
Compression mode : Lossy
Stream size : 264 MiB (2%)
Title : DVO - Премьер видео
Language : Russian
Service kind : Complete Main
Default : No
Forced : No

Audio #3
ID : 4
Format : AC-3
Format/Info : Audio Coding 3
Commercial name : Dolby Digital
Codec ID : A_AC3
Duration : 1 h 35 min
Bit rate mode : Constant
Bit rate : 192 kb/s
Channel(s) : 2 channels
Channel layout : L R
Sampling rate : 48.0 kHz
Frame rate : 31.250 FPS (1536 SPF)
Bit depth : 16 bits
Compression mode : Lossy
Stream size : 132 MiB (1%)
Title : MVO - Селена интернешнл по заказу СТС
Language : Russian
Service kind : Complete Main
Default : No
Forced : No

Audio #4
ID : 5
Format : AC-3
Format/Info : Audio Coding 3
Commercial name : Dolby Digital
Codec ID : A_AC3
Duration : 1 h 35 min
Bit rate mode : Constant
Bit rate : 448 kb/s
Channel(s) : 6 channels
Channel layout : L R C LFE Ls Rs
Sampling rate : 48.0 kHz
Frame rate : 31.250 FPS (1536 SPF)
Bit depth : 16 bits
Compression mode : Lossy
Stream size : 307 MiB (3%)
Title : DVO - Петр Гланц и Инна Королева
Language : Russian
Service kind : Complete Main
Default : No
Forced : No

Audio #5
ID : 6
Format : AC-3
Format/Info : Audio Coding 3
Commercial name : Dolby Digital
Codec ID : A_AC3
Duration : 1 h 35 min
Bit rate mode : Constant
Bit rate : 448 kb/s
Channel(s) : 6 channels
Channel layout : L R C LFE Ls Rs
Sampling rate : 48.0 kHz
Frame rate : 31.250 FPS (1536 SPF)
Bit depth : 16 bits
Compression mode : Lossy
Stream size : 307 MiB (3%)
Title : AVO - Юрий Живов
Language : Russian
Service kind : Complete Main
Default : No
Forced : No

Audio #6
ID : 7
Format : AC-3
Format/Info : Audio Coding 3
Commercial name : Dolby Digital
Codec ID : A_AC3
Duration : 1 h 35 min
Bit rate mode : Constant
Bit rate : 448 kb/s
Channel(s) : 6 channels
Channel layout : L R C LFE Ls Rs
Sampling rate : 48.0 kHz
Frame rate : 31.250 FPS (1536 SPF)
Bit depth : 16 bits
Compression mode : Lossy
Stream size : 307 MiB (3%)
Title : AVO - Василий Горчаков
Language : Russian
Service kind : Complete Main
Default : No
Forced : No

Audio #7
ID : 8
Format : AC-3
Format/Info : Audio Coding 3
Commercial name : Dolby Digital
Codec ID : A_AC3
Duration : 1 h 35 min
Bit rate mode : Constant
Bit rate : 448 kb/s
Channel(s) : 6 channels
Channel layout : L R C LFE Ls Rs
Sampling rate : 48.0 kHz
Frame rate : 31.250 FPS (1536 SPF)
Bit depth : 16 bits
Compression mode : Lossy
Stream size : 307 MiB (3%)
Title : AVO - Андрей Гаврилов
Language : Russian
Service kind : Complete Main
Default : No
Forced : No

Audio #8
ID : 9
Format : AC-3
Format/Info : Audio Coding 3
Commercial name : Dolby Digital
Codec ID : A_AC3
Duration : 1 h 35 min
Bit rate mode : Constant
Bit rate : 448 kb/s
Channel(s) : 6 channels
Channel layout : L R C LFE Ls Rs
Sampling rate : 48.0 kHz
Frame rate : 31.250 FPS (1536 SPF)
Bit depth : 16 bits
Compression mode : Lossy
Stream size : 307 MiB (3%)
Title : AVO - Сергей Визгунов
Language : Russian
Service kind : Complete Main
Default : No
Forced : No

Audio #9
ID : 10
Format : AC-3
Format/Info : Audio Coding 3
Commercial name : Dolby Digital
Codec ID : A_AC3
Duration : 1 h 35 min
Bit rate mode : Constant
Bit rate : 448 kb/s
Channel(s) : 6 channels
Channel layout : L R C LFE Ls Rs
Sampling rate : 48.0 kHz
Frame rate : 31.250 FPS (1536 SPF)
Bit depth : 16 bits
Compression mode : Lossy
Stream size : 307 MiB (3%)
Language : English
Service kind : Complete Main
Default : No
Forced : No

Text #1
ID : 11
Format : UTF-8
Codec ID : S_TEXT/UTF8
Codec ID/Info : UTF-8 Plain Text
Duration : 1 h 30 min
Bit rate : 95 b/s
Count of elements : 1039
Stream size : 63.4 KiB (0%)
Title : Киномания
Language : Russian
Default : No
Forced : No

Text #2
ID : 12
Format : UTF-8
Codec ID : S_TEXT/UTF8
Codec ID/Info : UTF-8 Plain Text
Duration : 1 h 26 min
Bit rate : 45 b/s
Count of elements : 1017
Stream size : 28.7 KiB (0%)
Title : Full
Language : English
Default : No
Forced : No

Menu
00:00:00.000 : :Daylight Station
00:05:41.007 : :The Lewis and Clark
00:08:26.965 : :I'm Waiting
00:12:11.981 : :A Single Transmission
00:18:38.951 : :The Event Horizon
00:23:19.732 : :A Tomb
00:29:05.786 : :The Heart of the Ship
00:34:01.081 : :The Gateway
00:39:23.319 : :The Dark
00:45:08.623 : :Hallucinations
00:51:09.608 : :Open the Door
00:58:17.703 : :Mistake in the Translation
01:04:37.957 : :Wonderful Things to Show You
01:09:29.957 : :Dr. Weir
01:15:05.167 : :Isn't She Beautiful?
01:22:20.561 : :Let Me Show You
01:29:34.953 : :Rescue


Релиз от: HANNIBAL



   Похожие торренты   Торрент   Размер 
В этой теме нет новых непрочитанных сообщений. Сквозь горизонт (Горизонт событий) / Event Horizon (1997) BDRip 1080p от MediaClub | P, P2, A

76 | 15

12.13 ГБ

В этой теме нет новых непрочитанных сообщений. Сквозь горизонт / Event Horizon (1997) BDRemux 1080p | P, P2, A

3 | 4

48.32 ГБ

В этой теме нет новых непрочитанных сообщений. Сквозь горизонт / Event Horizon (1997) BDRip 1080 | P, P2, A

13 | 6

17.15 ГБ

В этой теме нет новых непрочитанных сообщений. Сквозь горизонт / Event Horizon (1997) BDRip 720p от k.e.n & NNMClub | P, P2, A

40 | 1

7.75 ГБ

В этой теме нет новых непрочитанных сообщений. Сквозь горизонт / Event Horizon (1997) HDRip-AVC | P, P2, A

120 | 7

1.45 ГБ

В этой теме нет новых непрочитанных сообщений. Сквозь горизонт / Event Horizon (1997) BDRemux 1080 | P, P2, A

3 | 3

44.17 ГБ

В этой теме нет новых непрочитанных сообщений. Сквозь горизонт / Event Horizon (1997) HDRip | Горчаков

30 | 6

1.46 ГБ




Вы не можете начинать темы
Вы не можете отвечать на сообщения
Вы не можете редактировать свои сообщения
Вы не можете удалять свои сообщения
Вы не можете добавлять вложения

Перейти:  
 Вход
ppkBB3cker v.2 © 2008-2014 @ PPK
[ Time : 0.033s | 16 Queries | GZIP : Off ]

cron