img image001 image001 image001 image001 image001 image001 image001 image001 image001 image001 image001 image001 image001 image001 image001

Planets Sun Sun Sun
Статистика раздачи
Автор: Снежана | Размер: 1.46 ГБ | Добавлен: 10 сен 2019
Раздают: 10    Качают: 1
Скачать торрент
Скачать торрент
Описание торрента

СообщениеДобавлено: 10 сен 2019 

Обитель страха / Ветер / The Wind


Перевод: Профессиональный (полное дублирование) iTunes, субтитры: отсутствуют
Формат: HDRip-AVC, MKV, H.264, AC3
Страна: США
Режиссер: Эмма Тамми
Жанр: ужасы, вестерн
Продолжительность: 01:28:09
Год выпуска: 2018
В ролях: Майлз Андерсон, Кейтлин Джерард, Джулия Голден Теллес, Дилан МакТи, Мартин Си Паттерсон, Эшли Цукерман

Описание: Дикий Запад, конец XIX века. Где-то в бескрайних прериях живёт молодая пара. Муж часто отлучается на заработки в город и оставляет Лиззи одну, поэтому она очень обрадовалась, когда рядом поселилась ещё одна семейная пара. Теперь женщине есть с кем поговорить и провести время. Но забеременев, новая подруга начинает странно себя вести и утверждать, что где-то поблизости бродит нечто потустороннее.



Видео: 1024x432 (2.40:1), 23.976 fps, AVC MPEG4 (x264), , ~1988 kbps avg, 0.187 bit/pixel
Аудио: 48 kHz, AC3 Dolby Digital, 3/2 (L,C,R,l,r) + LFE ch, ~384 kbps
General
Unique ID : 218707809484880842626498354922299733519 (0xA48997891B3A9C8BB0B970C93086360F)
Complete name : C:\Users\123\Downloads\The.Wind.2018.HDRip_AVC_[tfile.ru].mkv
Format : Matroska
Format version : Version 4 / Version 2
File size : 1.46 GiB
Duration : 1h 28mn
Overall bit rate mode : Constant
Overall bit rate : 2 374 Kbps
Movie name : The Wind 2018 from селезень
Encoded date : UTC 2019-09-09 08:14:05
Writing application : mkvmerge v7.4.0 (''Circles'') 64bit built on Dec 12 2014 12:19:56
Writing library : libebml v1.3.0 + libmatroska v1.4.1
DURATION : 01:28:08.320000000
NUMBER_OF_FRAMES : 165260
NUMBER_OF_BYTES : 253839360
_STATISTICS_WRITING_APP : mkvmerge v7.4.0 (''Circles'') 64bit built on Dec 12 2014 12:19:56
_STATISTICS_WRITING_DATE_UTC : 2019-09-09 08:14:05
_STATISTICS_TAGS : BPS DURATION NUMBER_OF_FRAMES NUMBER_OF_BYTES

Video
ID : 1
Format : AVC
Format/Info : Advanced Video Codec
Format profile :
Format settings, CABAC : Yes
Format settings, ReFrames : 2 frames
Format settings, GOP : M=1, N=25
Codec ID : V_MPEG4/ISO/AVC
Duration : 1h 28mn
Bit rate mode : Constant
Bit rate : 1 988 Kbps
Width : 1 024 pixels
Height : 432 pixels
Display aspect ratio : 2.40:1
Frame rate mode : Constant
Frame rate : 23.976 fps
Color space : YUV
Chroma subsampling : 4:2:0
Bit depth : 8 bits
Scan type : Progressive
Bits/(Pixel*Frame) : 0.187
Stream size : 1.20 GiB (82%)
Title : Encoded by seleZen
Language : English
Default : Yes
Forced : No
DURATION : 01:28:09.076000000
NUMBER_OF_FRAMES : 126811
NUMBER_OF_BYTES : 1314192161
_STATISTICS_WRITING_APP : mkvmerge v7.4.0 (''Circles'') 64bit built on Dec 12 2014 12:19:56
_STATISTICS_WRITING_DATE_UTC : 2019-09-09 08:14:05
_STATISTICS_TAGS : BPS DURATION NUMBER_OF_FRAMES NUMBER_OF_BYTES

Audio
ID : 2
Format : AC-3
Format/Info : Audio Coding 3
Mode extension : CM (complete main)
Format settings, Endianness : Big
Codec ID : A_AC3
Duration : 1h 28mn
Bit rate mode : Constant
Bit rate : 384 Kbps
Channel(s) : 6 channels
Channel positions : Front: L C R, Side: L R, LFE
Sampling rate : 48.0 KHz
Compression mode : Lossy
Stream size : 242 MiB (16%)
Default : Yes
Forced : No









   Похожие торренты   Торрент   Размер 
В этой теме нет новых непрочитанных сообщений. Обитель страха / Ветер / The Wind (Эмма Тамми ) [2018 , ужасы, вестерн , WEBDLRip] MVO

11 | 0

1.45 ГБ

В этой теме нет новых непрочитанных сообщений. Ветер / The Wind (Эмма Тамми) [2018, ужасы, вестерн, WEBDLRip] AVO

10 | 0

695.17 МБ

В этой теме нет новых непрочитанных сообщений. Ветер демонов / Demon Wind (Чарльз Филип Мур) [1990, ужасы, HDRip] AVO

0 | 0

1.46 ГБ

В этой теме нет новых непрочитанных сообщений. Призраки / Пронизывающий ветер / Wind Chill [Open Matte] (Грегори Джейкобс) [2007, ужасы, триллер, драма, WEB-DLRip] MVO

9 | 1

1.46 ГБ

В этой теме нет новых непрочитанных сообщений. Холодный спуск / West of Hell (Майкл Стивс) [2018, вестерн, ужасы, фэнтези, HDRip] MVO

10 | 0

1.29 ГБ

В этой теме нет новых непрочитанных сообщений. Ветер / Wind (1992) HDRip от Koenig | P2

21 | 10

2.18 ГБ

В этой теме нет новых непрочитанных сообщений. Обитель тьмы / Heilstatten (Майкл Дэвид Пэйт ) [2018 , ужасы, триллер, HDRip-AVC] DUB

21 | 0

1.46 ГБ




Вы не можете начинать темы
Вы не можете отвечать на сообщения
Вы не можете редактировать свои сообщения
Вы не можете удалять свои сообщения
Вы не можете добавлять вложения

Перейти:  
 Вход
ppkBB3cker v.2 © 2008-2014 @ PPK
[ Time : 0.031s | 16 Queries | GZIP : Off ]

cron