img image001 image001 image001 image001 image001 image001 image001 image001 image001 image001 image001 image001 image001 image001 image001

Planets Sun Sun Sun
Статистика раздачи
Автор: Снежана | Размер: 1.36 ГБ | Добавлен: 10 сен 2019
Раздают: 1    Качают: 0
Скачать торрент
Скачать торрент
Описание торрента

СообщениеДобавлено: 10 сен 2019 

Сросшиеся / Conjoined


Перевод: Любительский (одноголосый) datynet, субтитры: отсутствуют
Формат: WEBRip-AVC, MKV, H.264, AC3
Страна: США
Режиссер: Бразил Джозеф Грисаффи III
Жанр: ужасы
Продолжительность: 01:15:59
Год выпуска: 2013
В ролях: Том Лонг, Мишель Эллен Джонс, Кифер Барлоу, Джейк Берд, Сара Гастон, Дэн Брэверман, Ларри Уэйд Каррелл, Дерек Хьюи, Стефан Лопес, Ник В. Николсон, Трой Паркер, Дейдре Стивенс.

Описание: Когда одинокий холостяк узнает, что у любви всей его жизни есть сиамский близнец, который, как оказался еще и серийным убийцей, то он должен принять кардинальные и жесткие меры, чтобы сохранить свою любовную жизнь нетронутой и одновременно уберечь себя от крупных неприятностей.



Видео: 1024x576 (16:9), 23.976 fps, AVC MPEG4 (x264), , ~2150 kbps avg, 0.152 bit/pixel
Аудио #1: Русский:48 kHz, AC3 Dolby Digital, 2 (L,R) ch, ~192.00 kbps avg [Любительский (одноголосый)]
Аудио #2: Англиский:48 kHz, AC3 Dolby Digital, 2 (L,R) ch, ~224.00 kbps avg [Оригинал]
General
Unique ID : 204783743779645738243384697764088148500 (0x9A0FEA17E185A1F095925CCA10887214)
Complete name : C:\Users\123\Desktop\Conjoined.2013.WEBRip-AVC_[tfile.ru].mkv
Format : Matroska
Format version : Version 4 / Version 2
File size : 1.36 GiB
Duration : 1h 15mn
Overall bit rate mode : Constant
Overall bit rate : 2 565 Kbps
Encoded date : UTC 2019-09-09 15:27:13
Writing application : mkvmerge v7.4.0 (''Circles'') 64bit built on Dec 12 2014 12:19:56
Writing library : libebml v1.3.0 + libmatroska v1.4.1
DURATION : 01:15:59.328000000
NUMBER_OF_FRAMES : 142479
NUMBER_OF_BYTES : 127661184
_STATISTICS_WRITING_APP : mkvmerge v7.4.0 (''Circles'') 64bit built on Dec 12 2014 12:19:56
_STATISTICS_WRITING_DATE_UTC : 2019-09-09 15:27:13
_STATISTICS_TAGS : BPS DURATION NUMBER_OF_FRAMES NUMBER_OF_BYTES

Video
ID : 1
Format : AVC
Format/Info : Advanced Video Codec
Format profile :
Format settings, CABAC : Yes
Format settings, ReFrames : 2 frames
Format settings, GOP : M=1, N=25
Codec ID : V_MPEG4/ISO/AVC
Duration : 1h 15mn
Bit rate mode : Constant
Bit rate : 2 150 Kbps
Width : 1 024 pixels
Height : 576 pixels
Display aspect ratio : 16:9
Frame rate mode : Constant
Frame rate : 23.976 fps
Color space : YUV
Chroma subsampling : 4:2:0
Bit depth : 8 bits
Scan type : Progressive
Bits/(Pixel*Frame) : 0.152
Stream size : 1.11 GiB (82%)
Language : English
Default : Yes
Forced : No
DURATION : 01:15:57.504000000
NUMBER_OF_FRAMES : 142422
NUMBER_OF_BYTES : 109380096
_STATISTICS_WRITING_APP : mkvmerge v7.4.0 (''Circles'') 64bit built on Dec 12 2014 12:19:56
_STATISTICS_WRITING_DATE_UTC : 2019-09-09 15:27:13
_STATISTICS_TAGS : BPS DURATION NUMBER_OF_FRAMES NUMBER_OF_BYTES

Audio #1
ID : 2
Format : AC-3
Format/Info : Audio Coding 3
Mode extension : CM (complete main)
Format settings, Endianness : Big
Codec ID : A_AC3
Duration : 1h 15mn
Bit rate mode : Constant
Bit rate : 192 Kbps
Channel(s) : 2 channels
Channel positions : Front: L R
Sampling rate : 48.0 KHz
Compression mode : Lossy
Stream size : 104 MiB (7%)
Title : L1
Language : Russian
Default : Yes
Forced : No

Audio #2
ID : 3
Format : AC-3
Format/Info : Audio Coding 3
Mode extension : CM (complete main)
Format settings, Endianness : Big
Codec ID : A_AC3
Duration : 1h 15mn
Bit rate mode : Constant
Bit rate : 224 Kbps
Channel(s) : 2 channels
Channel positions : Front: L R
Sampling rate : 48.0 KHz
Compression mode : Lossy
Stream size : 122 MiB (9%)
Default : No
Forced : No
DURATION : 01:15:59.263000000
NUMBER_OF_FRAMES : 109313
NUMBER_OF_BYTES : 1223409889
_STATISTICS_WRITING_APP : mkvmerge v7.4.0 (''Circles'') 64bit built on Dec 12 2014 12:19:56
_STATISTICS_WRITING_DATE_UTC : 2019-09-09 15:27:13
_STATISTICS_TAGS : BPS DURATION NUMBER_OF_FRAMES NUMBER_OF_BYTES










   Похожие торренты   Торрент   Размер 
В этой теме нет новых непрочитанных сообщений. Сросшиеся / Conjoined (Бразил Джозеф Грисаффи III / Brazil Joseph Grisaffi III) [2013, ужасы, WEBRip] VO

13 | 2

702.92 МБ

В этой теме нет новых непрочитанных сообщений. Добрый сынок / The Good Son (Джозеф Рубин) [1993, ужасы, триллер, драма, LowHDRip-AVC] MVO / Драмы

2 | 2

744.6 МБ

В этой теме нет новых непрочитанных сообщений. Хэллоуин у тети Этель / Halloween at Aunt Ethel's (Джозеф Маццаферро) [2018, ужасы, комедия, WEBDLRip-AVC] DVO / Мистика

3 | 0

1.46 ГБ

В этой теме нет новых непрочитанных сообщений. Насыщенный / Bodied (Джозеф Кан) [2017, Драма, комедия, музыка, WEBRip] MVO / Драмы

8 | 0

2.05 ГБ

В этой теме нет новых непрочитанных сообщений. Банни / Bunni (Дэниэл Бенедикт / Daniel Benedict) [2013, ужасы, слэшер, WEBRip-AVC] VO / Мистика

9 | 0

654.87 МБ

В этой теме нет новых непрочитанных сообщений. Джозеф Дилейни - Ученик ведьмака (2015) MP3

221 | 8

229.39 МБ

В этой теме нет новых непрочитанных сообщений. Джозеф Эндрюс / Joseph Andrews (1977) DVDRip | P, P2

19 | 5

1.59 ГБ




Вы не можете начинать темы
Вы не можете отвечать на сообщения
Вы не можете редактировать свои сообщения
Вы не можете удалять свои сообщения
Вы не можете добавлять вложения

Перейти:  
 Вход
ppkBB3cker v.2 © 2008-2014 @ PPK
[ Time : 0.028s | 16 Queries | GZIP : Off ]

cron