img image001 image001 image001 image001 image001 image001 image001 image001 image001 image001 image001 image001 image001 image001 image001

Planets Sun Sun Sun
Статистика раздачи
Автор: Снежана | Размер: 1.46 ГБ | Добавлен: 11 сен 2019
Раздают: 13    Качают: 2
Скачать торрент
Скачать торрент
Описание торрента

СообщениеДобавлено: 11 сен 2019 

Аксиома / The Axiom


Перевод: Профессиональный (многоголосый закадровый) HDRezka Studio, субтитры: отсутствуют
Формат: HDRip-AVC, MKV, H.264, AC3
Страна: США
Режиссер: Николас Вудс
Жанр: ужасы
Продолжительность: 01:38:43
Год выпуска: 2018
В ролях: Хэтти Смит, Зак Титус, Николь Дамбро, Майкл Харрисон, Тейлор Флауэрс, Уильям Кирчер, Аарон Берджон, Дежан Браун, Брэндон Буртис, Чейз Каргилл

Описание: Маккензи Коди вместе с друзьями отправляется в национальный парк Синдер, чтобы разыскать без вести пропавшую сестру Мэрилин. Не желая самостоятельно заходить в лес, где часто пропадают люди, друзья принимают помощь со стороны местного жителя Леона. Продвигаясь вглубь парка вместе с проводником, Маккензи и компания начинают испытывать галлюцинации, а также слышать «голоса». Спустя некоторое время ситуация выходит из-под контроля, когда главные герои находят невидимый портал, который переносит их в параллельное измерение, где находится мир загадочных монстров...



Видео: 1024x432 (2.40:1), 23.976 fps, AVC MPEG4 (x264), , ~1922 kbps avg, 0.181 bit/pixel
Аудио: 48 kHz, AC3 Dolby Digital, 2 (L,R) ch, ~192.00 kbps avg
General
Unique ID : 262630625677644286507235454017636145895 (0xC594D191C5F2B84B5BF0CDC67FF01AE7)
Complete name : C:\Users\123\Desktop\The.Axiom.2018.HDRip(AVC)_[tfile.ru].mkv
Format : Matroska
Format version : Version 4 / Version 2
File size : 1.46 GiB
Duration : 1h 39mn
Overall bit rate mode : Constant
Overall bit rate : 2 114 Kbps
Movie name : The.Axiom.2018
Encoded date : UTC 2019-09-10 09:01:47
Writing application : Lavf56.36.100
Writing library : Lavf56.36.100

Video
ID : 2
Format : AVC
Format/Info : Advanced Video Codec
Format profile :
Format settings, CABAC : Yes
Format settings, ReFrames : 2 frames
Format settings, GOP : M=1, N=25
Codec ID : V_MPEG4/ISO/AVC
Duration : 1h 39mn
Bit rate mode : Constant
Bit rate : 1 922 Kbps
Width : 1 024 pixels
Height : 432 pixels
Display aspect ratio : 2.40:1
Frame rate mode : Constant
Frame rate : 23.976 fps
Color space : YUV
Chroma subsampling : 4:2:0
Bit depth : 8 bits
Scan type : Progressive
Bits/(Pixel*Frame) : 0.181
Stream size : 1.30 GiB (89%)
Language : English
Default : Yes
Forced : No
DURATION : 01:38:43.001000000
NUMBER_OF_FRAMES : 142010
NUMBER_OF_BYTES : 1310643877
_STATISTICS_WRITING_APP : mkvmerge v7.4.0 (''Circles'') 64bit built on Dec 12 2014 12:19:56
_STATISTICS_WRITING_DATE_UTC : 2019-09-10 09:01:47
_STATISTICS_TAGS : BPS DURATION NUMBER_OF_FRAMES NUMBER_OF_BYTES

Audio
ID : 1
Format : AC-3
Format/Info : Audio Coding 3
Mode extension : CM (complete main)
Format settings, Endianness : Big
Codec ID : A_AC3
Duration : 1h 39mn
Bit rate mode : Constant
Bit rate : 192 Kbps
Channel(s) : 2 channels
Channel positions : Front: L R
Sampling rate : 48.0 KHz
Bit depth : 32 bits
Compression mode : Lossy
Stream size : 136 MiB (9%)
Title : MVO [HDRezka Studio]
Language : Russian
Default : Yes
Forced : No
DURATION : 01:39:00.736000000
NUMBER_OF_FRAMES : 185648
NUMBER_OF_BYTES : 142577664
_STATISTICS_WRITING_APP : mkvmerge v7.4.0 (''Circles'') 64bit built on Dec 12 2014 12:19:56
_STATISTICS_WRITING_DATE_UTC : 2019-09-10 09:01:47
_STATISTICS_TAGS : BPS DURATION NUMBER_OF_FRAMES NUMBER_OF_BYTES









   Похожие торренты   Торрент   Размер 
В этой теме нет новых непрочитанных сообщений. Аксиома / The Axiom (Николас Вудс) [2018, ужасы, WEBDLRip] MVO / Мистика

118 | 8

1.37 ГБ

В этой теме нет новых непрочитанных сообщений. Аксиома / The Axiom (Николас Вудс) [2018, ужасы, WEBDLRip] MVO / Мистика

52 | 0

1.37 ГБ

В этой теме нет новых непрочитанных сообщений. Мальчики на деревьях / Boys in the Trees (Николас Версо) [2016, ужасы, триллер, драма, HDRip] MVO / Мистика

7 | 0

1.36 ГБ

В этой теме нет новых непрочитанных сообщений. Трансчеловек / Transhuman (Николас Винтер) [2017, ужасы, WEBDLRip] MVO / Мистика

0 | 8

1.36 ГБ

В этой теме нет новых непрочитанных сообщений. Черные праздники / Holidays (Энтони Скотт Бёрнс, Кевин Колш, Николас МакКарти, Адам Иджипт Мортимер, Гари Шор, Кевин Смит (I), Сара Адина, Скотт Чарльз Стюарт, Деннис Уидмайер) [2016, ужасы, комедия, HDRip] DUB / Мистика

8 | 0

1.46 ГБ

В этой теме нет новых непрочитанных сообщений. Суспирия / Suspiria (Лука Гуаданьино) [2018, ужасы, мистика, триллер, драма, детектив, BDRip-AVC] DUB / Мистика

20 | 1

1.45 ГБ

В этой теме нет новых непрочитанных сообщений. Дьяволица / Люциферина / Luciferina (Гонсало Кальзада / Gonzalo Calzada) [2018, ужасы, мистика, WEBDLRip-AVC] VO / Мистика

38 | 7

1.57 ГБ




Вы не можете начинать темы
Вы не можете отвечать на сообщения
Вы не можете редактировать свои сообщения
Вы не можете удалять свои сообщения
Вы не можете добавлять вложения

Перейти:  
 Вход
ppkBB3cker v.2 © 2008-2014 @ PPK
[ Time : 0.036s | 16 Queries | GZIP : Off ]

cron