img image001 image001 image001 image001 image001 image001 image001 image001 image001 image001 image001 image001 image001 image001 image001

Planets Sun Sun Sun
Статистика раздачи
Автор: Снежана | Размер: 1.46 ГБ | Добавлен: 11 сен 2019
Раздают: 17    Качают: 3
Скачать торрент
Скачать торрент
Описание торрента

СообщениеДобавлено: 11 сен 2019 

Небеса Ланкастера / Lancaster Skies


Перевод: Любительский (двухголосый) LakeFilms, субтитры: отсутствуют
Формат: HDRip-AVC, MKV, H.264, AC3
Страна: Великобритания
Режиссер: Каллум Берн
Жанр: боевик, драма, военный
Продолжительность: 01:38:58
Год выпуска: 2019
В ролях: Крис Саддлер, Роза Кодури, Джошуа Коллинз, Вин Хоук, Джеффри Манделл, Джоэнн Гэйл, Том Гордон, Дэвид Добсон, Стив Хили, Эд Портер

Описание: Перед воздушным сражением над Берлином в 1944 году американский военный летчик Дуглас должен преодолеть свой самый главный страх, который скрывается в его прошлом. От того, сможет он это сделать или нет, зависит успех всей операции.



Видео: 1024x432 (2.40:1), 24 fps, AVC MPEG4 (x264), , ~1922 kbps avg, 0.181 bit/pixel
Аудио: 48 kHz, AC3 Dolby Digital, 2 (L,R) ch, ~192.00 kbps avg
General
Unique ID : 63386031691984279415860668939088655757 (0x2FAFB4A56C292E74A80454E3DB13758D)
Complete name : C:\Users\123\Desktop\Lancaster.Skies.2019.HDRip(AVC)_[tfile.ru].mkv
Format : Matroska
Format version : Version 4 / Version 2
File size : 1.46 GiB
Duration : 1h 38mn
Overall bit rate mode : Constant
Overall bit rate : 2 114 Kbps
Movie name : Lancaster.Skies.2019
Encoded date : UTC 2019-09-10 10:27:26
Writing application : Lavf56.36.100
Writing library : Lavf56.36.100

Video
ID : 2
Format : AVC
Format/Info : Advanced Video Codec
Format profile :
Format settings, CABAC : Yes
Format settings, ReFrames : 2 frames
Format settings, GOP : M=1, N=25
Codec ID : V_MPEG4/ISO/AVC
Duration : 1h 38mn
Bit rate mode : Constant
Bit rate : 1 922 Kbps
Width : 1 024 pixels
Height : 432 pixels
Display aspect ratio : 2.40:1
Frame rate mode : Constant
Frame rate : 24.000 fps
Color space : YUV
Chroma subsampling : 4:2:0
Bit depth : 8 bits
Scan type : Progressive
Bits/(Pixel*Frame) : 0.181
Stream size : 1.30 GiB (89%)
Language : English
Default : Yes
Forced : No
DURATION : 01:38:58.167000000
NUMBER_OF_FRAMES : 142516
NUMBER_OF_BYTES : 1425449432
_STATISTICS_WRITING_APP : mkvmerge v7.4.0 (''Circles'') 64bit built on Dec 12 2014 12:19:56
_STATISTICS_WRITING_DATE_UTC : 2019-09-10 10:27:26
_STATISTICS_TAGS : BPS DURATION NUMBER_OF_FRAMES NUMBER_OF_BYTES

Audio
ID : 1
Format : AC-3
Format/Info : Audio Coding 3
Mode extension : CM (complete main)
Format settings, Endianness : Big
Codec ID : A_AC3
Duration : 1h 38mn
Bit rate mode : Constant
Bit rate : 192 Kbps
Channel(s) : 2 channels
Channel positions : Front: L R
Sampling rate : 48.0 KHz
Bit depth : 32 bits
Compression mode : Lossy
Stream size : 136 MiB (9%)
Title : DVO [LakeFilms]
Language : Russian
Default : Yes
Forced : No
DURATION : 01:38:58.208000000
NUMBER_OF_FRAMES : 185569
NUMBER_OF_BYTES : 142516992
_STATISTICS_WRITING_APP : mkvmerge v7.4.0 (''Circles'') 64bit built on Dec 12 2014 12:19:56
_STATISTICS_WRITING_DATE_UTC : 2019-09-10 10:27:26
_STATISTICS_TAGS : BPS DURATION NUMBER_OF_FRAMES NUMBER_OF_BYTES








   Похожие торренты   Торрент   Размер 
В этой теме нет новых непрочитанных сообщений. Небо над Ланкастером / Lancaster Skies (Каллум Берн) [2019, боевик, драма, военный, WEBDLRip] MVO

16 | 0

1.33 ГБ

В этой теме нет новых непрочитанных сообщений. Балканский рубеж (Андрей Волгин) [2019, военный, боевик, драма, HDRip]

47 | 3

2.11 ГБ

В этой теме нет новых непрочитанных сообщений. Балканский рубеж (Андрей Волгин) [2019, военный, боевик, драма, BDRip]

433 | 15

1.46 ГБ

В этой теме нет новых непрочитанных сообщений. Балканский рубеж (Андрей Волгин) [2019, военный, боевик, драма, BDRip-AVC]

46 | 1

2.9 ГБ

В этой теме нет новых непрочитанных сообщений. Братство (Павел Лунгин) [2019, драма, боевик, история, военный, WEBRip]

68 | 1

1.37 ГБ

В этой теме нет новых непрочитанных сообщений. Балканский рубеж (Андрей Волгин) [2019, военный, боевик, драма, BDRip-AVC]

44 | 0

1.47 ГБ

В этой теме нет новых непрочитанных сообщений. Братство (Павел Лунгин) [2019, драма, боевик, история, военный, WEBRip]

42 | 0

2.18 ГБ




Вы не можете начинать темы
Вы не можете отвечать на сообщения
Вы не можете редактировать свои сообщения
Вы не можете удалять свои сообщения
Вы не можете добавлять вложения

Перейти:  
 Вход
ppkBB3cker v.2 © 2008-2014 @ PPK
[ Time : 0.021s | 17 Queries | GZIP : Off ]

cron