img image001 image001 image001 image001 image001 image001 image001 image001 image001 image001 image001 image001 image001 image001 image001

Planets Sun Sun Sun
Статистика раздачи
Автор: Снежана | Размер: 1.7 ГБ | Добавлен: 23 июл 2013
Раздают: 138    Качают: 8
Скачать торрент
Скачать торрент
Описание торрента

СообщениеДобавлено: 23 июл 2013 

#77


«Сегодня они проснулись не в себе. Буквально!»


Информация о фильме
Название: Чумовая пятница
Оригинальное название: Freaky Friday
Год выхода: 2003
Жанр: Комедия
Режиссер: Марк С. Уотерс
В ролях: Джейми Ли Кертис, Линдсей Лохан, Марк Хэрмон, Харольд Гулд, Чад Майкл Мюррэй, Стивен Тоболовски, Кристина Видал, Райан Малгарини, Хейли Хадсон, Дина Спайби, Тейлор Негрон, Джули Гонсало

О фильме:
Как и многие тинейджеры, 15-летняя Анна никак не может найти общий язык со своей матерью Тесс. Они расходятся во взглядах буквально на все! Тесс терпеть не может рок-музыку, дикие прически и бойфрендов Анны. А Анна в ярости, что ее мать собралась второй раз замуж. Бесконечные ссоры сотрясают их дом, Похоже, героиням никогда не договориться, но происходит чудо - и однажды в пятницу каждая просыпается... в теле другой! Что ж, лучшего шанса понять друг друга лучше и не придумаешь, и в тоже время это ужасная катастрофа, ведь на субботу назначена мамина свадьба! Волшебная, чумовая пятница вступает в свои права, и у Тесс с Анной есть лишь 24 часа, чтобы найти способ вернуться в свои тела! И побыстрее!..

Страна: США
Студия: Walt Disney Pictures, Casual Friday Productions
Продолжительность: 01:33:04
Перевод: Дублированный + Профессиональный двухголосый закадровый

Файл
Кодек: XviD
Качество: WEB-DLRip
Видео: 1639 Кбит/с, 704x384, 25.000 кадр/с

Звук:
• №1: Русский (AC3, 2 ch, 192 Кбит/с) Дублированный
• №2: Русский (AC3, 6 ch, 384 Кбит/с) Профессиональный двухголосый
• №3: Английский (AC3, 6 ch, 384 Кбит/с) (отдельным файлом)

Субтитры: Русские, английские

Семпл

Chumovaja.pyatnica.2003.XviD.WEB-DLRip.avi
Формат : AVI
Формат/Информация : Audio Video Interleave
Размер файла : 1,45 Гбайт
Продолжительность : 1 ч. 33 м.
Общий поток : 2229 Кбит/сек
Название фильма : Чумовая пятница / Freaky Friday [2003] -=WEB-DLRip=-
Жанр : Комеди
Программа кодирования : VirtualDubMod 1.5.10.2 (build 2540/release)
Правообладатель : Rip by 0ptimus
Примечание : DUB, DVO

Видео
Идентификатор : 0
Формат : MPEG-4 Visual
Профиль формата : Advanced Simple@L5
Параметр BVOP формата : 2
Параметр QPel формата : Нет
Параметр GMC формата : Без точки перехода
Параметр матрицы формата : Выборочная
Идентификатор кодека : XVID
Идентификатор кодека/Подсказка : XviD
Продолжительность : 1 ч. 33 м.
Битрейт : 1639 Кбит/сек
Ширина : 704 пикселя
Высота : 384 пикселя
Соотношение сторон : 1,85:1
Частота кадров : 25,000 кадров/сек
Цветовое пространство : YUV
Субдискретизация насыщенности : 4:2:0
Битовая глубина : 8 бит
Тип развёртки : Прогрессивная
Метод сжатия : С потерями
Бит/(Пиксели*Кадры) : 0.243
Размер потока : 1,07 Гбайт (74%)
Библиотека кодирования : XviD 64

Аудио #1
Идентификатор : 1
Формат : AC-3
Формат/Информация : Audio Coding 3
Профиль формата : Dolby Digital
Расширение режима : CM (complete main)
Параметр Endianness формата : Big
Идентификатор кодека : 2000
Продолжительность : 1 ч. 32 м.
Вид битрейта : Постоянный
Битрейт : 192 Кбит/сек
Каналы : 2 канала
Расположение каналов : Front: L R
Частота : 48,0 КГц
Битовая глубина : 16 бит
Метод сжатия : С потерями
Размер потока : 128 Мбайт (9%)
Выравнивание : Разделение по промежуткам
Продолжительность промежутка : 40 мс. (1,00 видеокадр)
Время предзагрузки промежутка : 500 мс.

Аудио #2
Идентификатор : 2
Формат : AC-3
Формат/Информация : Audio Coding 3
Расширение режима : CM (complete main)
Параметр Endianness формата : Big
Идентификатор кодека : 2000
Продолжительность : 1 ч. 32 м.
Вид битрейта : Постоянный
Битрейт : 384 Кбит/сек
Каналы : 6 каналов
Расположение каналов : Front: L C R, Side: L R, LFE
Частота : 48,0 КГц
Битовая глубина : 16 бит
Метод сжатия : С потерями
Размер потока : 255 Мбайт (17%)
Выравнивание : Разделение по промежуткам
Продолжительность промежутка : 40 мс. (1,00 видеокадр)
Время предзагрузки промежутка : 500 мс.





Релиз от: 0ptimus



   Похожие торренты   Торрент   Размер 
В этой теме нет новых непрочитанных сообщений. Чумовая пятница / Freaky Friday (2003) WEB-DLRip-AVC | D, P2 , L1

101 | 8

2.19 ГБ

В этой теме нет новых непрочитанных сообщений. Чумовая пятница / Freaky Friday (2003) WEB-DLRip-AVC от DrVampir | D, P2

28 | 0

1.45 ГБ

В этой теме нет новых непрочитанных сообщений. Чумовая пятница / Freaky Friday (2003) DVDRip

359 | 9

1.37 ГБ

В этой теме нет новых непрочитанных сообщений. Чумовая пятница / Freaky Friday (2003) WEB-DL 720p

179 | 21

3.66 ГБ

В этой теме нет новых непрочитанных сообщений. OST - Чумовая пятница / Freaky Friday [Original Soundtrack] (2003) MP3

0 | 150

112.78 МБ

В этой теме нет новых непрочитанных сообщений. Чумовая пятница / Freaky Friday (2003) DVDRip | D | Лицензия

51 | 3

745.41 МБ

В этой теме нет новых непрочитанных сообщений. Чумовая пятница / Freaky Friday (2003) DVDRip-AVC от Torrent-Xzona

49 | 5

1.33 ГБ




Вы не можете начинать темы
Вы не можете отвечать на сообщения
Вы не можете редактировать свои сообщения
Вы не можете удалять свои сообщения
Вы не можете добавлять вложения

Перейти:  
Для Мосгорсуда, Роскомнадзора и рекламодателей: mosgorsud-torrent[собачка]yandex.ru
 Вход
ppkBB3cker v.2 © 2008-2014 @ PPK
[ Time : 0.114s | 15 Queries | GZIP : Off ]

Торрент трекер RUTOR.IN, Не можете зайти на rutor.org? Какой новый адрес рутор? Какое зеркало рутор? Не работает rutor.org и зеркала? Тогда наш торрент специально для вас. Rutor.in неофициальное зеркало rutor. В случае если у Вас заблокирован rutor или вдруг Вы не можете на него зайти, то Вы без труда сможете скачать бесплатно и без рекламы последние новинки кино, игр, сериалов и прочего у нас, на Rutor.in. Не нужно использовать прокси, чтобы зайти на рутор, достаточно воспользоваться нашим ресурсом. Все новые фильмы, игры, сериалы, книги и музыка за 2013 и 2014 годы через торрент бесплатно. Скачивайте фильмы в хорошем качестве, игры для пк, xbox, playstation без регистрации. У нас вы найдете новые Зарубежные сериалы и Русские сериалы 2013, 2014, 2015 годов. Оставайтесь с нами, качайте любимые фильмы, игры, сериалы, книги и музыку.