img image001 image001 image001 image001 image001 image001 image001 image001 image001 image001 image001 image001 image001 image001 image001

Planets Sun Sun Sun
Статистика раздачи
Автор: Снежана | Размер: 1.46 ГБ | Добавлен: 07 ноя 2019
Раздают: 12    Качают: 0
Скачать торрент
Скачать торрент
Описание торрента

СообщениеДобавлено: 07 ноя 2019 

Маленькие чудовища / Little Monsters


Перевод: Профессиональный (многоголосый закадровый) HDRezka Studio
Субтитры: Русские (форсированные, хардсаб)
Формат: WEBDLRip-AVC, MKV, H.264, AC3
Страна: Великобритания, США, Австралия
Режиссер: Абе Форсайт
Жанр: комедия, ужасы
Продолжительность: 01:34:12
Год выпуска: 2019
В ролях: Лупита Нионго, Джош Гад, Александр Инглэнд, Стивен Пикок, Надя Таунсенд, Кэт Стюарт, Маршалл Напье, Генри Никсон, Дизель Ла Торрака, Феликс Уильямсон

Описание: Воспитательница везёт группу дошколят за город на экскурсию, когда на местности происходит вспышка зомби-вируса. Чтобы спастись и не травмировать хрупкую детскую психику, женщина убеждает малышей, что все эти зомби, кровь, кишки — ненастоящие, а всё происходящее — просто игра. Странная, но весёлая. И вот тот дядя корчится не от боли, а от радости. И не корчится, а смеётся.



Видео: 1024x432 (2.40:1), 23.976 fps, AVC MPEG4 (x264), , ~2028 kbps avg, 0.191 bit/pixel
Аудио: 48 kHz, AC3 Dolby Digital, 2 (L,R) ch, ~192.00 kbps avg
General
Unique ID : 12581501704105694821058098478880881304 (0x9771BED2C671C35519CCFA9DE237A98)
Complete name : C:\Users\123\Desktop\Little.Monsters.2019_[tfile.ru].mkv
Format : Matroska
Format version : Version 4 / Version 2
File size : 1.46 GiB
Duration : 1h 34mn
Overall bit rate mode : Constant
Overall bit rate : 2 220 Kbps
Encoded date : UTC 2019-11-06 11:43:13
Writing application : Lavf56.36.100
Writing library : Lavf56.36.100

Video
ID : 2
Format : AVC
Format/Info : Advanced Video Codec
Format profile :
Format settings, CABAC : Yes
Format settings, ReFrames : 2 frames
Format settings, GOP : M=1, N=25
Codec ID : V_MPEG4/ISO/AVC
Duration : 1h 34mn
Bit rate mode : Constant
Bit rate : 2 028 Kbps
Width : 1 024 pixels
Height : 432 pixels
Display aspect ratio : 2.40:1
Frame rate mode : Constant
Frame rate : 23.976 fps
Color space : YUV
Chroma subsampling : 4:2:0
Bit depth : 8 bits
Scan type : Progressive
Bits/(Pixel*Frame) : 0.191
Stream size : 1.31 GiB (89%)
Language : English
Default : Yes
Forced : No
DURATION : 01:34:12.689000000
NUMBER_OF_FRAMES : 135527
NUMBER_OF_BYTES : 1269121792
_STATISTICS_WRITING_APP : mkvmerge v7.4.0 (''Circles'') 64bit built on Dec 12 2014 12:19:56
_STATISTICS_WRITING_DATE_UTC : 2019-11-06 11:43:13
_STATISTICS_TAGS : BPS DURATION NUMBER_OF_FRAMES NUMBER_OF_BYTES

Audio
ID : 1
Format : AC-3
Format/Info : Audio Coding 3
Mode extension : CM (complete main)
Format settings, Endianness : Big
Codec ID : A_AC3
Duration : 1h 34mn
Bit rate mode : Constant
Bit rate : 192 Kbps
Channel(s) : 2 channels
Channel positions : Front: L R
Sampling rate : 48.0 KHz
Bit depth : 32 bits
Compression mode : Lossy
Stream size : 129 MiB (9%)
Default : Yes
Forced : No
DURATION : 01:34:12.480000000
NUMBER_OF_FRAMES : 176640
NUMBER_OF_BYTES : 135659520
_STATISTICS_WRITING_APP : mkvmerge v7.4.0 (''Circles'') 64bit built on Dec 12 2014 12:19:56
_STATISTICS_WRITING_DATE_UTC : 2019-11-06 11:43:13
_STATISTICS_TAGS : BPS DURATION NUMBER_OF_FRAMES NUMBER_OF_BYTES









   Похожие торренты   Торрент   Размер 
В этой теме нет новых непрочитанных сообщений. Маленькие чудовища / Little Monsters (Абе Форсайт) [2019, комедия, ужасы, WEBDLRip] MVO

76 | 1

1.37 ГБ

В этой теме нет новых непрочитанных сообщений. Маленькие чудовища / Little Monsters (Абе Форсайт) [2019, комедия, ужасы, WEBDLRip] DUB

14 | 1

1.46 ГБ

В этой теме нет новых непрочитанных сообщений. Музыкальная глухота / Tone-Deaf (Ричард Бейтс мл.) [2019, ужасы, триллер, комедия, WEBDLRip] MVO

7 | 0

1.46 ГБ

В этой теме нет новых непрочитанных сообщений. Сверх(НЕ)естественное / Extra Ordinary (Майк Ахерн, Энда Логман) [2019, ужасы, фэнтези, комедия, WEBDLRip-AVC] DUB

30 | 0

1.46 ГБ

В этой теме нет новых непрочитанных сообщений. Оно 2 / It Chapter Two (Андрес Мускетти) [2019, ужасы, фэнтези, драма, WEBRip-AVC] MVO

47 | 12

2.18 ГБ

В этой теме нет новых непрочитанных сообщений. Трюк / Trick (Патрик Люссье) [2019, ужасы, WEBDLRip] MVO

7 | 0

1.37 ГБ

В этой теме нет новых непрочитанных сообщений. Элай / Eli (Киран Фой) [2019, ужасы, WEBDLRip] MVO

50 | 0

1.46 ГБ




Вы не можете начинать темы
Вы не можете отвечать на сообщения
Вы не можете редактировать свои сообщения
Вы не можете удалять свои сообщения
Вы не можете добавлять вложения

Перейти:  
 Вход
ppkBB3cker v.2 © 2008-2014 @ PPK
[ Time : 0.039s | 16 Queries | GZIP : Off ]

cron