img image001 image001 image001 image001 image001 image001 image001 image001 image001 image001 image001 image001 image001 image001 image001

Planets Sun Sun Sun
Статистика раздачи
Автор: Снежана | Размер: 1.46 ГБ | Добавлен: 02 дек 2019
Раздают: 46    Качают: 2
Скачать торрент
Скачать торрент
Описание торрента

СообщениеДобавлено: 02 дек 2019 

Я иду искать / Ready or Not

Перевод: Профессиональный (полное дублирование) iTunes, cубтитры: отсутствуют
Формат: HDRip-AVC, MKV, H.264, AC3
Страна: Канада, США
Режиссер: Мэттью Беттинелли, Тайлер Джиллетт
Жанр: ужасы, триллер, комедия, детектив
Продолжительность: 01:35:22
Год выпуска: 2019
В ролях: Самара Уивинг, Адам Броди, Марк О’Брайэн, Генри Черни, Энди МакДауэлл, Мелани Скрофано, Кристиан Бруун, Никки Гуаданьи, Элиз Левек, Джон Ралстон

Описание: Молодая невеста — теперь часть семьи своего новоиспеченного мужа, богатого, но эксцентричного рода, чтящего вековые традиции. Кто бы мог подумать, что первая брачная ночь превратится в смертельную игру с новообретёнными родственниками, в которой девушке нужно будет очень постараться, чтобы дожить до рассвета.



Видео: 1024x432 (2.40:1), 23.976 fps, AVC MPEG4 (x264), , ~1808 kbps avg, 0.170 bit/pixel
Аудио: 48 kHz, AC3 Dolby Digital, 3/2 (L,C,R,l,r) + LFE ch, ~384 kbps
General
Unique ID : 298797465837417384239538591728176087749 (0xE0CA4C760D4F45ADDDBB844FFC4242C5)
Complete name : C:\Users\123\Downloads\Ready.or.Not.2019.HDRip.AVC_[tfile.ru].mkv
Format : Matroska
Format version : Version 4 / Version 2
File size : 1.46 GiB
Duration : 1h 35mn
Overall bit rate mode : Constant
Overall bit rate : 2 192 Kbps
Movie name : Ready or Not 2019 from ExKinoRay
Encoded date : UTC 2019-11-28 21:32:28
Writing application : Lavf56.36.100
Writing library : Lavf56.36.100

Video
ID : 2
Format : AVC
Format/Info : Advanced Video Codec
Format profile :
Format settings, CABAC : Yes
Format settings, ReFrames : 2 frames
Format settings, GOP : M=1, N=25
Codec ID : V_MPEG4/ISO/AVC
Duration : 1h 35mn
Bit rate mode : Constant
Bit rate : 1 808 Kbps
Width : 1 024 pixels
Height : 432 pixels
Display aspect ratio : 2.40:1
Frame rate mode : Constant
Frame rate : 23.976 fps
Color space : YUV
Chroma subsampling : 4:2:0
Bit depth : 8 bits
Scan type : Progressive
Bits/(Pixel*Frame) : 0.170
Stream size : 1.18 GiB (80%)
Title : Enigma
Language : English
Default : Yes
Forced : No

Audio
ID : 1
Format : AC-3
Format/Info : Audio Coding 3
Mode extension : CM (complete main)
Format settings, Endianness : Big
Codec ID : A_AC3
Duration : 1h 35mn
Bit rate mode : Constant
Bit rate : 384 Kbps
Channel(s) : 6 channels
Channel positions : Front: L C R, Side: L R, LFE
Sampling rate : 48.0 KHz
Bit depth : 32 bits
Compression mode : Lossy
Stream size : 262 MiB (18%)
Title : iTunes
Language : Russian
Default : Yes
Forced : No








   Похожие торренты   Торрент   Размер 
В этой теме нет новых непрочитанных сообщений. Я иду искать / Ready or Not (Мэттью Беттинелли, Тайлер Джиллетт) [2019, ужасы, триллер, комедия, детектив, BDRip] DUB

1752 | 103

1.42 ГБ

В этой теме нет новых непрочитанных сообщений. Я иду искать / Ready or Not (Мэттью Беттинелли, Тайлер Джиллетт) [2019, ужасы, триллер, комедия, детектив, BDRip-AVC] 2xDUB (rus, ukr)

100 | 7

2.19 ГБ

В этой теме нет новых непрочитанных сообщений. Я иду искать / Ready or Not (Мэттью Беттинелли, Тайлер Джиллетт) [2019, триллер, комедия, ужасы, BDRip] VO

70 | 3

1.46 ГБ

В этой теме нет новых непрочитанных сообщений. Пункт назначения: Смайл / Polaroid (Ларс Клевберг) [2019, ужасы, триллер, детектив, HDRip-AVC] DUB

64 | 0

1.46 ГБ

В этой теме нет новых непрочитанных сообщений. Солнцестояние / Midsommar (Ари Астер) [2019, ужасы, триллер, драма, HDRip-AVC] DUB / Мистика

98 | 3

1.46 ГБ

В этой теме нет новых непрочитанных сообщений. Паучок / Itsy Bitsy (Мика Галло) [2019, ужасы, фэнтези, триллер, детектив, HDRip-AVC] AVO

13 | 1

1.46 ГБ

В этой теме нет новых непрочитанных сообщений. Сверх(НЕ)естественное / Extra Ordinary (Майк Ахерн, Энда Логман) [2019, ужасы, фэнтези, комедия, WEBDLRip-AVC] DUB

30 | 0

1.46 ГБ




Вы не можете начинать темы
Вы не можете отвечать на сообщения
Вы не можете редактировать свои сообщения
Вы не можете удалять свои сообщения
Вы не можете добавлять вложения

Перейти:  
 Вход
ppkBB3cker v.2 © 2008-2014 @ PPK
[ Time : 0.031s | 17 Queries | GZIP : Off ]

cron