img image001 image001 image001 image001 image001 image001 image001 image001 image001 image001 image001 image001 image001 image001 image001

Planets Sun Sun Sun
Статистика раздачи
Автор: Снежана | Размер: 1.46 ГБ | Добавлен: 02 дек 2019
Раздают: 45    Качают: 0
Скачать торрент
Скачать торрент
Описание торрента

СообщениеДобавлено: 02 дек 2019 

Иные / Freaks

Перевод: Профессиональный (полное дублирование) iTunes, cубтитры: отсутствуют
Формат: WEBDLRip-AVC, MKV, H.264, AC3
Страна: Канада, США
Режиссер: Зак Липовски, Адам Б. Стейн
Жанр: фантастика, триллер, драма
Продолжительность: 01:44:45
Год выпуска: 2018

В ролях: Эмиль Хирш, Брюс Дерн, Грейс Пак, Аманда Крю, Лекси Колкер, Ава Телек, Мишель Харрисон, Мэтти Финочио, Алекс Паунович, АрДжей Фезерстонхо

Описание: В уединенном домике одного из районов Лос-Анджелеса живут маленькая девочка и ее заботливый отец. Вполне нормальная семья, если не считать, что девочка одним взглядом может поднять в воздух тяжеленный шкаф, а у отца всегда наготове снятый с предохранителя пистолет. Каждый день, уходя из дома, папа запирает дочь, и категорически запрещает открывать дверь. Ей нельзя ни с кем разговаривать и не позволено даже подходить к окну. Единственное развлечение девочки: тайком наблюдать из-за занавесок за фургончиком мороженщика, который целыми днями торчит возле их дома. Играет музыка и таинственной голос призывает её отпереть дверь и полакомиться сладеньким. Малышке так хочется мороженого, но ведь папа сказал, что это смертельно опасно: никто не должен её видеть!
И вот однажды девочка нарушает запрет, и начинаются самые невероятные события, которые только можно представить.




Видео: 1024x432 (2.40:1), 24 fps, AVC MPEG4 (x264), , ~1613 kbps avg, 0.152 bit/pixel
Аудио: 48 kHz, AC3 Dolby Digital, 3/2 (L,C,R,l,r) + LFE ch, ~384 kbps
General
Unique ID : 200481506673811123617641667850158157413 (0x96D3556D5B3CFDB8882966CA6A5B2E65)
Complete name : C:\Users\123\Desktop\Freaks(2018) WEB-DLRip-AVC_[tfile.ru].mkv
Format : Matroska
Format version : Version 4 / Version 2
File size : 1.46 GiB
Duration : 1h 44mn
Overall bit rate mode : Constant
Overall bit rate : 1 997 Kbps
Movie name : Иные / Freaks (2018)
Encoded date : UTC 2019-11-30 02:03:34
Writing application : Lavf56.36.100
Writing library : Lavf56.36.100

Video
ID : 2
Format : AVC
Format/Info : Advanced Video Codec
Format profile :
Format settings, CABAC : Yes
Format settings, ReFrames : 2 frames
Format settings, GOP : M=1, N=25
Codec ID : V_MPEG4/ISO/AVC
Duration : 1h 44mn
Bit rate mode : Constant
Bit rate : 1 613 Kbps
Width : 1 024 pixels
Height : 432 pixels
Display aspect ratio : 2.40:1
Frame rate mode : Constant
Frame rate : 24.000 fps
Color space : YUV
Chroma subsampling : 4:2:0
Bit depth : 8 bits
Scan type : Progressive
Bits/(Pixel*Frame) : 0.152
Stream size : 1.15 GiB (79%)
Title : FREAKS (2018) WEB-DL 1080p
Language : English
Default : Yes
Forced : No
DURATION : 01:44:45.333000000
NUMBER_OF_FRAMES : 150848
NUMBER_OF_BYTES : 3598355863
_STATISTICS_WRITING_APP : mkvmerge v7.4.0 (''Circles'') 64bit built on Dec 12 2014 12:19:56
_STATISTICS_WRITING_DATE_UTC : 2019-11-30 02:03:34
_STATISTICS_TAGS : BPS DURATION NUMBER_OF_FRAMES NUMBER_OF_BYTES

Audio
ID : 1
Format : AC-3
Format/Info : Audio Coding 3
Mode extension : CM (complete main)
Format settings, Endianness : Big
Codec ID : A_AC3
Duration : 1h 44mn
Bit rate mode : Constant
Bit rate : 384 Kbps
Channel(s) : 6 channels
Channel positions : Front: L C R, Side: L R, LFE
Sampling rate : 48.0 KHz
Bit depth : 32 bits
Compression mode : Lossy
Stream size : 288 MiB (19%)
Title : iTunes | FREAKS (2018) WEB-DL 1080p-KAZTORKA
Language : Russian
Default : Yes
Forced : No
DURATION : 01:44:45.376000000
NUMBER_OF_FRAMES : 196418
NUMBER_OF_BYTES : 301698048
_STATISTICS_WRITING_APP : mkvmerge v7.4.0 (''Circles'') 64bit built on Dec 12 2014 12:19:56
_STATISTICS_WRITING_DATE_UTC : 2019-11-30 02:03:34
_STATISTICS_TAGS : BPS DURATION NUMBER_OF_FRAMES NUMBER_OF_BYTES








   Похожие торренты   Торрент   Размер 
В этой теме нет новых непрочитанных сообщений. Иные / Freaks (Зак Липовски, Адам Б. Стейн) [2018, фантастика, триллер, драма, HDRip] DUB

318 | 3

1.46 ГБ

В этой теме нет новых непрочитанных сообщений. Иные / Freaks (ак Липовски, Адам Б. Стейн) [2018, фантастика, триллер, драма, BDRip] DUB

63 | 0

1.41 ГБ

В этой теме нет новых непрочитанных сообщений. Ким Пять-с-плюсом / Kim Possible (Зэк Липовски, Адам Б. Стейн) [2019, боевик, комедия, приключения , WEBDLRip] MVO

37 | 6

1.45 ГБ

В этой теме нет новых непрочитанных сообщений. iБой / iBoy (Адам Рэндолл) [2017, фантастика, боевик, триллер, криминал, WEBDLRip] MVO / Фантастика

5 | 0

1.37 ГБ

В этой теме нет новых непрочитанных сообщений. К звёздам / Ad Astra (Джеймс Грэй) [2019, фантастика, триллер, драма, детектив, приключения, WEBDLRip] DUB

135 | 6

1.46 ГБ

В этой теме нет новых непрочитанных сообщений. К звёздам / Ad Astra (Джеймс Грэй) [2019, фантастика, триллер, драма, детектив, приключения, WEBDLRip] DUB

123 | 4

1.46 ГБ

В этой теме нет новых непрочитанных сообщений. Чужеродное вторжение / Alien Raiders (Бен Рок) [2008, фантастика, триллер, WEBDLRip-AVC] DVO / Фантастика

5 | 0

1.46 ГБ




Вы не можете начинать темы
Вы не можете отвечать на сообщения
Вы не можете редактировать свои сообщения
Вы не можете удалять свои сообщения
Вы не можете добавлять вложения

Перейти:  
 Вход
ppkBB3cker v.2 © 2008-2014 @ PPK
[ Time : 0.074s | 16 Queries | GZIP : Off ]

cron