img image001 image001 image001 image001 image001 image001 image001 image001 image001 image001 image001 image001 image001 image001 image001

Planets Sun Sun Sun

COVID-19 - Последняя информация о коронавирусе на сайте Минздрава


Статистика раздачи
Автор: Снежана | Размер: 2.18 ГБ | Добавлен: 27 дек 2019
Раздают: 8    Качают: 0


Скачать торрент
Скачать торрент
Описание торрента

СообщениеДобавлено: 27 дек 2019 

Дитя робота / I Am Mother

Перевод: Профессиональный (полное дублирование) iTunes, cубтитры: отсутствуют
Формат: BDRip-AVC, MKV, H.264, AC3
Страна: Австралия
Режиссер: Грант Спьютор
Жанр: ужасы, фантастика, триллер, драма
Продолжительность: 01:53:34
Год выпуска: 2019

В ролях: Роуз Бирн, Хилари Суэнк, Клара Ругор, Люк Хокер, Тейлия Стурзэйкер, Джейкоб Нолан, Хэйзел Сэндери, Саммер Лентон, Мэдди Лентон

Описание: События разворачиваются в будущем, после глобальной катастрофы, которая уничтожила всю жизнь на Земле. В изолированном от внешнего мира бункере активизируется автономная программа, призванная спасти людей от полного вымирания. Специальный робот-нянька выращивает из эмбриона ребенка, который может возродить человеческую цивилизацию. В течении многих лет робот обучает и воспитывает девочку, рассказывая своей подопечной о страшной катастрофе и той роли, что ей уготована. Однако их изолированное существование однажды нарушает неожиданный гость: в один из дней у дверей бункера появляется изможденная женщина, которая просит о помощи...



Видео: 1024x432 (2.40:1), 24 fps, AVC MPEG4 (x264), , ~1918 kbps avg, 0.181 bit/pixel
Аудио #1: Русский:48 kHz, AC3 Dolby Digital, 3/2 (L,C,R,l,r) + LFE ch, ~384 kbps [Профессиональный (полное дублирование)]
Аудио #2: Английский:48 kHz, AC3 Dolby Digital, 3/2 (L,C,R,l,r) + LFE ch, ~448 kbps [Оригинал]
General
Unique ID : 167326377067259814827766275880148582635 (0x7DE1E3547D76DB25DB6311E0E000C0EB)
Complete name : C:\Users\123\Desktop\I.Am.Mother.2019.BDREMUX.1080p_[tfile.ru].mkv
Format : Matroska
Format version : Version 4 / Version 2
File size : 2.18 GiB
Duration : 1h 53mn
Overall bit rate mode : Constant
Overall bit rate : 2 751 Kbps
Movie name : I Am Mother 2019 from селезень
Encoded date : UTC 2019-12-25 07:25:37
Writing application : Lavf56.36.100
Writing library : Lavf56.36.100

Video
ID : 3
Format : AVC
Format/Info : Advanced Video Codec
Format profile :
Format settings, CABAC : Yes
Format settings, ReFrames : 2 frames
Format settings, GOP : M=1, N=25
Codec ID : V_MPEG4/ISO/AVC
Duration : 1h 53mn
Bit rate mode : Constant
Bit rate : 1 918 Kbps
Width : 1 024 pixels
Height : 432 pixels
Display aspect ratio : 2.40:1
Frame rate mode : Constant
Frame rate : 24.000 fps
Color space : YUV
Chroma subsampling : 4:2:0
Bit depth : 8 bits
Scan type : Progressive
Bits/(Pixel*Frame) : 0.181
Stream size : 1.48 GiB (68%)
Language : English
Default : Yes
Forced : No
_STATISTICS_WRITING_APP : mkvmerge v7.4.0 (''Circles'') 64bit built on Dec 12 2014 12:19:56
_STATISTICS_WRITING_DATE_UTC : 2019-12-25 07:25:37
_STATISTICS_TAGS : BPS DURATION NUMBER_OF_FRAMES NUMBER_OF_BYTES
DURATION : 01:53:34.875000000
NUMBER_OF_FRAMES : 163557
NUMBER_OF_BYTES : 4043302893

Audio #1
ID : 1
Format : AC-3
Format/Info : Audio Coding 3
Mode extension : CM (complete main)
Format settings, Endianness : Big
Codec ID : A_AC3
Duration : 1h 53mn
Bit rate mode : Constant
Bit rate : 384 Kbps
Channel(s) : 6 channels
Channel positions : Front: L C R, Side: L R, LFE
Sampling rate : 48.0 KHz
Bit depth : 32 bits
Compression mode : Lossy
Stream size : 312 MiB (14%)
Default : Yes
Forced : No
_STATISTICS_WRITING_APP : mkvmerge v7.4.0 (''Circles'') 64bit built on Dec 12 2014 12:19:56
_STATISTICS_WRITING_DATE_UTC : 2019-12-25 07:25:37
_STATISTICS_TAGS : BPS DURATION NUMBER_OF_FRAMES NUMBER_OF_BYTES
DURATION : 01:53:18.080000000
NUMBER_OF_FRAMES : 212440
NUMBER_OF_BYTES : 326307840

Audio #2
ID : 2
Format : AC-3
Format/Info : Audio Coding 3
Mode extension : CM (complete main)
Format settings, Endianness : Big
Codec ID : A_AC3
Duration : 1h 53mn
Bit rate mode : Constant
Bit rate : 448 Kbps
Channel(s) : 6 channels
Channel positions : Front: L C R, Side: L R, LFE
Sampling rate : 48.0 KHz
Bit depth : 32 bits
Compression mode : Lossy
Stream size : 364 MiB (16%)
Default : Yes
Forced : No
_STATISTICS_WRITING_APP : mkvmerge v7.4.0 (''Circles'') 64bit built on Dec 12 2014 12:19:56
_STATISTICS_WRITING_DATE_UTC : 2019-12-25 07:25:37
_STATISTICS_TAGS : BPS DURATION NUMBER_OF_FRAMES NUMBER_OF_BYTES
DURATION : 01:53:34.848000000
NUMBER_OF_FRAMES : 212964
NUMBER_OF_BYTES : 381631488








   Похожие торренты   Торрент   Размер 
В этой теме нет новых непрочитанных сообщений. Дитя робота / I Am Mother (Грант Спьютор ) [2019, ужасы, фантастика, триллер, драма, WEBDLRip] DUB

14 | 0

1.46 ГБ

В этой теме нет новых непрочитанных сообщений. Дитя робота / I Am Mother (Грант Спьютор) [2019, фантастика, триллер, WEBDLRip-AVC] MVO

13 | 0

1.46 ГБ

В этой теме нет новых непрочитанных сообщений. Дитя робота / I Am Mother (Грант Спьютор) [2019, фантастика, триллер, WEB-DLRip] DVO

8 | 0

1.37 ГБ

В этой теме нет новых непрочитанных сообщений. Дитя человеческое / Children of Men (Альфонсо Куарон) [2006, фантастика, триллер, драма, BDRip] DUB / Фантастика

2 | 3

2.19 ГБ

В этой теме нет новых непрочитанных сообщений. Я - легенда / I Am Legend (Френсис Лоуренс) [2007, ужасы, фантастика, триллер, драма, BDRip] DUB / Фантастика

33 | 4

1.46 ГБ

В этой теме нет новых непрочитанных сообщений. Трансформация / Rupture (Стивен Шейнберг) [2016, Ужасы, фантастика, триллер, BDRip-AVC] DUB / Фантастика

6 | 0

746.16 МБ

В этой теме нет новых непрочитанных сообщений. Живое / Life (Даниэль Эспиноса) [2017, фантастика, ужасы, триллер, BDRip-AVC] DUB / Фантастика

16 | 5

1.46 ГБ




Вы не можете начинать темы
Вы не можете отвечать на сообщения
Вы не можете редактировать свои сообщения
Вы не можете удалять свои сообщения
Вы не можете добавлять вложения

Перейти:  
Контактная информация: rstracker[пёсик]yandex.ru
 Вход
ppkBB3cker v.2 © 2008-2014 @ PPK
[ Time : 0.018s | 16 Queries | GZIP : Off ]

cron