img image001 image001 image001 image001 image001 image001 image001 image001 image001 image001 image001 image001 image001 image001 image001

Planets Sun Sun Sun
Статистика раздачи
Автор: Снежана | Размер: 1.46 ГБ | Добавлен: 13 янв 2020
Раздают: 83    Качают: 1
Скачать торрент
Скачать торрент
Описание торрента

СообщениеДобавлено: 13 янв 2020 

Курьер / The Courier

Перевод: Профессиональный (полное дублирование) iTunes, cубтитры: отсутствуют
Формат: HDRip, MKV, H.264, AC3
Страна: Великобритания, США
Режиссер: Закари Адлер
Жанр: боевик, триллер, драма
Продолжительность: 01:39:39
Год выпуска: 2019
В ролях: Ольга Куриленко, Гари Олдман, Амит Шах, Алисия Агнесон, Грег Орвис, Крэйг Конуэй, Уильям Моусли, Дермот Малруни, Гордон Александр, Нил Чапелхау

Описание: На первый взгляд, она — всего лишь курьер на черном мотоцикле, стремительно пронзающем ночной Лондон. Но даже в огромном мегаполисе красотке удается ускользнуть от уличных камер, и ее имя невозможно найти ни в одной базе данных. Именно она, дерзкая и неуловимая, бросит вызов могущественному криминальному боссу. И ему лучше не знать, кто на самом деле эта взрывная брюнетка…



Видео: 1024x432 (2.40:1), 23.976 fps, AVC MPEG4 (x264), , ~1718 kbps avg, 0.162 bit/pixel
Аудио: 48 kHz, AC3 Dolby Digital, 3/2 (L,C,R,l,r) + LFE ch, ~384 kbps
General
Unique ID : 137349051445624307638827921591265541442 (0x67547710DFD0D37A143F25469A5A3D42)
Complete name : C:\Users\123\Desktop\The.Courier.2019.BDRip-AVC_[tfile.ru].mkv
Format : Matroska
Format version : Version 4 / Version 2
File size : 1.46 GiB
Duration : 1h 39mn
Overall bit rate mode : Constant
Overall bit rate : 2 102 Kbps
Encoded date : UTC 2020-01-11 00:25:12
Writing application : Lavf56.36.100
Writing library : Lavf56.36.100

Video
ID : 2
Format : AVC
Format/Info : Advanced Video Codec
Format profile :
Format settings, CABAC : Yes
Format settings, ReFrames : 2 frames
Format settings, GOP : M=1, N=25
Codec ID : V_MPEG4/ISO/AVC
Duration : 1h 39mn
Bit rate mode : Constant
Bit rate : 1 718 Kbps
Width : 1 024 pixels
Height : 432 pixels
Display aspect ratio : 2.40:1
Frame rate mode : Constant
Frame rate : 23.976 fps
Color space : YUV
Chroma subsampling : 4:2:0
Bit depth : 8 bits
Scan type : Progressive
Bits/(Pixel*Frame) : 0.162
Stream size : 1.17 GiB (80%)
Language : English
Default : Yes
Forced : No
DURATION : 01:39:34.010000000
NUMBER_OF_FRAMES : 143233
NUMBER_OF_BYTES : 3565627932
_STATISTICS_WRITING_APP : mkvmerge v40.0.0 (''Old Town Road + Pony'') 64-bit
_STATISTICS_WRITING_DATE_UTC : 2020-01-11 00:25:12
_STATISTICS_TAGS : BPS DURATION NUMBER_OF_FRAMES NUMBER_OF_BYTES

Audio
ID : 1
Format : AC-3
Format/Info : Audio Coding 3
Mode extension : CM (complete main)
Format settings, Endianness : Big
Codec ID : A_AC3
Duration : 1h 39mn
Bit rate mode : Constant
Bit rate : 384 Kbps
Channel(s) : 6 channels
Channel positions : Front: L C R, Side: L R, LFE
Sampling rate : 48.0 KHz
Bit depth : 32 bits
Compression mode : Lossy
Stream size : 274 MiB (18%)
Title : iTunes
Language : Russian
Default : Yes
Forced : No
DURATION : 01:39:34.048000000
NUMBER_OF_FRAMES : 186689
NUMBER_OF_BYTES : 286754304
_STATISTICS_WRITING_APP : mkvmerge v40.0.0 (''Old Town Road + Pony'') 64-bit
_STATISTICS_WRITING_DATE_UTC : 2020-01-11 00:25:12
_STATISTICS_TAGS : BPS DURATION NUMBER_OF_FRAMES NUMBER_OF_BYTES








   Похожие торренты   Торрент   Размер 
В этой теме нет новых непрочитанных сообщений. Курьер / The Courier (Закари Адлер) [2019, драма, боевик, триллер, WEB-DLRip] DUB

234 | 4

1.46 ГБ

В этой теме нет новых непрочитанных сообщений. Три секунды / The Informer (Андреа Ди Стефано) [2019, триллер, криминал, боевик, HDRip-AVC] DUB

64 | 2

2.18 ГБ

В этой теме нет новых непрочитанных сообщений. Рэмбо: Последняя кровь / Rambo: Last Blood (Адриан Грюнберг) [2019, боевик, триллер, приключения, HDRip-AVC] DUB

75 | 5

2.18 ГБ

В этой теме нет новых непрочитанных сообщений. Солнцестояние / Midsommar (Ари Астер) [2019, ужасы, триллер, драма, HDRip-AVC] DUB / Мистика

42 | 0

1.46 ГБ

В этой теме нет новых непрочитанных сообщений. Гемини / Gemini Man (Энг Ли) [2019, фантастика, боевик, триллер, драма, HDRip] DUB

117 | 6

1.47 ГБ

В этой теме нет новых непрочитанных сообщений. Жажда смерти / Death Wish (Элай Рот) [2018, боевик, триллер, криминал, HDRip-AVC] DUB / Боевики /Action

20 | 1

2.18 ГБ

В этой теме нет новых непрочитанных сообщений. Гемини / Gemini Man (Энг Ли) [2019, боевик, триллер, фантастика, драма, HDTVRip] DUB

104 | 0

2.05 ГБ




Вы не можете начинать темы
Вы не можете отвечать на сообщения
Вы не можете редактировать свои сообщения
Вы не можете удалять свои сообщения
Вы не можете добавлять вложения

Перейти:  
 Вход
ppkBB3cker v.2 © 2008-2014 @ PPK
[ Time : 0.033s | 17 Queries | GZIP : Off ]

cron