img image001 image001 image001 image001 image001 image001 image001 image001 image001 image001 image001 image001 image001 image001 image001

Planets Sun Sun Sun
Статистика раздачи
Автор: Снежана | Размер: 2.19 ГБ | Добавлен: 13 янв 2020
Раздают: 9    Качают: 1
Скачать торрент
Скачать торрент
Описание торрента

СообщениеДобавлено: 13 янв 2020 

Танго и Кэш / Tango & Cash

Перевод: Профессиональный (полное дублирование), cубтитры: отсутствуют
Формат: HDRip-AVC, MKV, H.264, AC3
Страна: США
Режиссер: Андрей Кончаловский, Альберт Магноли
Жанр: боевик, триллер, комедия, криминал
Продолжительность: 01:43:46
Год выпуска: 1989
В ролях: Сильвестр Сталлоне, Курт Рассел, Тери Хэтчер, Джек Пэланс, Брайон Джеймс, Джеймс Хонг, Marc Alaimo, Филип Тан, Майкл Дж. Поллард, Роберт З`Дар, Льюис Аркетт, Эдвард Банкер, Лесли Моррис, Roy Brocksmith, Susan Krebs, Дэвид Бирд, Ричард Фэнси, Джерри Мартинез, Майкл Джетер, Бинг Расселл, Альфонсе Уолтер

Описание: Герои фильма — Танго и Кэш. Эти соперничающие друг с другом копы обладают одной общей чертой: каждый думает, что он самый лучший, и каждый имеет бесспорные доказательства этого.



Видео: 1024x432 (2.40:1), 23.976 fps, AVC MPEG4 (x264), , ~2118 kbps avg, 0.200 bit/pixel
Аудио#1: Русский:48 kHz, AC3 Dolby Digital, 3/2 (L,C,R,l,r) + LFE ch, ~448 kbps [Профессиональный (полное дублирование)]
Аудио#2: Английский:48 kHz, AC3 Dolby Digital, 3/2 (L,C,R,l,r) + LFE ch, ~448 kbps [Оригинал]
General
Unique ID : 103713905884406368663430699026437836505 (0x4E06925AE132524E882190C6CBEB0ED9)
Complete name : C:\Users\123\Desktop\Tango.&.Cash.1989.HDRip-AVC_[tfile.ru].mkv
Format : Matroska
Format version : Version 4 / Version 2
File size : 2.19 GiB
Duration : 1h 43mn
Overall bit rate mode : Constant
Overall bit rate : 3 016 Kbps
Movie name : Tango&Cash (1989) 720p BluRay ESiR - HDCLUB
Encoded date : UTC 2020-01-10 18:53:42
Writing application : Lavf56.36.100
Writing library : Lavf56.36.100

Video
ID : 3
Format : AVC
Format/Info : Advanced Video Codec
Format profile :
Format settings, CABAC : Yes
Format settings, ReFrames : 2 frames
Format settings, GOP : M=1, N=25
Codec ID : V_MPEG4/ISO/AVC
Duration : 1h 43mn
Bit rate mode : Constant
Bit rate : 2 118 Kbps
Width : 1 024 pixels
Height : 432 pixels
Display aspect ratio : 2.40:1
Frame rate mode : Constant
Frame rate : 23.976 fps
Color space : YUV
Chroma subsampling : 4:2:0
Bit depth : 8 bits
Scan type : Progressive
Bits/(Pixel*Frame) : 0.200
Stream size : 1.49 GiB (68%)
Language : English
Default : Yes
Forced : No
DURATION : 01:43:46.090000000
NUMBER_OF_FRAMES : 149277
NUMBER_OF_BYTES : 4185264830
_STATISTICS_WRITING_APP : mkvmerge v7.4.0 (''Circles'') 64bit built on Dec 12 2014 12:19:56
_STATISTICS_WRITING_DATE_UTC : 2020-01-10 18:53:42
_STATISTICS_TAGS : BPS DURATION NUMBER_OF_FRAMES NUMBER_OF_BYTES

Audio #1
ID : 1
Format : AC-3
Format/Info : Audio Coding 3
Mode extension : CM (complete main)
Format settings, Endianness : Big
Codec ID : A_AC3
Duration : 1h 43mn
Bit rate mode : Constant
Bit rate : 448 Kbps
Channel(s) : 6 channels
Channel positions : Front: L C R, Side: L R, LFE
Sampling rate : 48.0 KHz
Bit depth : 32 bits
Compression mode : Lossy
Stream size : 333 MiB (15%)
Default : Yes
Forced : No
DURATION : 01:43:46.144000000
NUMBER_OF_FRAMES : 194567
NUMBER_OF_BYTES : 348664064
_STATISTICS_WRITING_APP : mkvmerge v7.4.0 (''Circles'') 64bit built on Dec 12 2014 12:19:56
_STATISTICS_WRITING_DATE_UTC : 2020-01-10 18:53:42
_STATISTICS_TAGS : BPS DURATION NUMBER_OF_FRAMES NUMBER_OF_BYTES

Audio #2
ID : 2
Format : AC-3
Format/Info : Audio Coding 3
Mode extension : CM (complete main)
Format settings, Endianness : Big
Codec ID : A_AC3
Duration : 1h 43mn
Bit rate mode : Constant
Bit rate : 448 Kbps
Channel(s) : 6 channels
Channel positions : Front: L C R, Side: L R, LFE
Sampling rate : 44.1 KHz
Bit depth : 32 bits
Compression mode : Lossy
Stream size : 333 MiB (15%)
Default : Yes
Forced : No
DURATION : 01:43:46.164000000
NUMBER_OF_FRAMES : 178759
NUMBER_OF_BYTES : 348665174
_STATISTICS_WRITING_APP : mkvmerge v7.4.0 (''Circles'') 64bit built on Dec 12 2014 12:19:56
_STATISTICS_WRITING_DATE_UTC : 2020-01-10 18:53:42
_STATISTICS_TAGS : BPS DURATION NUMBER_OF_FRAMES NUMBER_OF_BYTES










   Похожие торренты   Торрент   Размер 
В этой теме нет новых непрочитанных сообщений. Танго и Кэш / Tango & Cash (Андрей Кончаловский, Альберт Магноли) [1989, боевик, триллер, комедия, криминал, BDRip-AVC] 2xDUB / Боевики /Action

12 | 0

745.62 МБ

В этой теме нет новых непрочитанных сообщений. Жажда смерти / Death Wish (Элай Рот) [2018, боевик, триллер, криминал, HDRip-AVC] DUB / Боевики /Action

20 | 1

2.18 ГБ

В этой теме нет новых непрочитанных сообщений. Бриллиантовый полицейский / Blue Streak (Лес Мэйфилд) [1999, боевик, триллер, комедия, криминал, HDRip] DUB+MVO / Боевики /Action

10 | 0

2.19 ГБ

В этой теме нет новых непрочитанных сообщений. Плохие парни / Bad Boys (Майкл Бэй) [4K Remastered] [1995, боевик, триллер, драма, комедия, криминал, HDRip] DUB / Боевики /Action

269 | 11

1.45 ГБ

В этой теме нет новых непрочитанных сообщений. Плохие парни 2 / Bad Boys II (Майкл Бэй) [4K Remastered] [2003, боевик, триллер, драма, комедия, криминал, HDRip] DUB / Боевики /Action

110 | 2

1.45 ГБ

В этой теме нет новых непрочитанных сообщений. Снегоуборщик / Cold Pursuit (Ханс Петтер Муланд) [2019, боевик, триллер, драма, криминал, BDRip] DUB / Боевики /Action

22 | 0

2.18 ГБ

В этой теме нет новых непрочитанных сообщений. Время возмездия / Destroyer (Карин Кусама) [2018, боевик, триллер, драма, криминал, детектив, BDRip] DUB / Боевики /Action

31 | 0

1.46 ГБ




Вы не можете начинать темы
Вы не можете отвечать на сообщения
Вы не можете редактировать свои сообщения
Вы не можете удалять свои сообщения
Вы не можете добавлять вложения

Перейти:  
 Вход
ppkBB3cker v.2 © 2008-2014 @ PPK
[ Time : 0.018s | 17 Queries | GZIP : Off ]

cron