img image001 image001 image001 image001 image001 image001 image001 image001 image001 image001 image001 image001 image001 image001 image001

Planets Sun Sun Sun
Статистика раздачи
Автор: Снежана | Размер: 2.19 ГБ | Добавлен: 13 янв 2020
Раздают: 19    Качают: 1
Скачать торрент
Скачать торрент
Описание торрента

СообщениеДобавлено: 13 янв 2020 

Бой / War

Перевод: Любительский (одноголосый) zamez, cубтитры: отсутствуют
Формат: HDRip-AVC, MKV, H264, AC3
Страна: Индия
Режиссер: Сиддхарт Ананд
Жанр: боевик, триллер
Продолжительность: 02:31:32
Год выпуска: 2019
В ролях: Ритик Рошан, Тайгер Шрофф, Ваани Капур, Ашутош Рана, Анупурия Гоенка, Яш Радж Синг, Машхур Амрохи, Санджив Ватса, Дипаннита Шарма, Сони Раздан

Описание: Сотрудник спецслужб получает задание обезвредить бывшего коллегу и собственного наставника, который внезапно убил нескольких своих и теперь объявлен врагом государства. Противостояние становится для обоих делом чести и выливается в настоящую войну.



Видео: 1024x432 (2.40:1), 24 fps, AVC MPEG4 (x264), , ~1618 kbps avg, 0.152 bit/pixel
Аудио: 48 kHz, AC3 Dolby Digital, 3/2 (L,C,R,l,r) + LFE ch, ~448 kbps

Доп. информация:
Самый дорогой болливудский фильм прошлого года с участием двух звезд индийского кинематографа. Сюжет фильма, который очень похож на «Форсаж», прыгает во времени и шокирует зрителя неожиданными поворотами и сложными трюками. Достоинства данного фильма:, быстрый темп, интенсивная музыка, разнообразные средства для передвижения - мотоциклы, спортивные машины, самолет, борьба на земле и в воздухе, романтика, экзотические локации.

РЕКЛАМЫ НЕТ !
General
Unique ID : 36496247879741927450111813825351297043 (0x1B74EBF23BBC10A78E6E70F9AD32A813)
Complete name : C:\Users\123\Desktop\War.2019.HDRip-AVC_[tfile.ru].mkv
Format : Matroska
Format version : Version 4 / Version 2
File size : 2.19 GiB
Duration : 2h 31mn
Overall bit rate mode : Constant
Overall bit rate : 2 066 Kbps
Movie name : WAR (2019) 1080p BluRay x264 {Hindi TrueHD 7.1} ESub By~Hammer~
Encoded date : UTC 2020-01-11 21:25:15
Writing application : Lavf56.36.100
Writing library : Lavf56.36.100

Video
ID : 2
Format : AVC
Format/Info : Advanced Video Codec
Format profile :
Format settings, CABAC : Yes
Format settings, ReFrames : 2 frames
Format settings, GOP : M=1, N=25
Codec ID : V_MPEG4/ISO/AVC
Duration : 2h 31mn
Bit rate mode : Constant
Bit rate : 1 618 Kbps
Width : 1 024 pixels
Height : 432 pixels
Display aspect ratio : 2.40:1
Frame rate mode : Constant
Frame rate : 24.000 fps
Color space : YUV
Chroma subsampling : 4:2:0
Bit depth : 8 bits
Scan type : Progressive
Bits/(Pixel*Frame) : 0.152
Stream size : 1.67 GiB (76%)
Title : ~EncodeR~Hammer~
Language : Hindi
Default : Yes
Forced : No
DURATION : 02:31:32.459000000
NUMBER_OF_FRAMES : 220235
NUMBER_OF_BYTES : 5732962003
_STATISTICS_WRITING_APP : mkvmerge v8.9.0 (''Father Daughter'') 32bit
_STATISTICS_WRITING_DATE_UTC : 2020-01-11 21:25:15
_STATISTICS_TAGS : BPS DURATION NUMBER_OF_FRAMES NUMBER_OF_BYTES

Audio
ID : 1
Format : AC-3
Format/Info : Audio Coding 3
Mode extension : CM (complete main)
Format settings, Endianness : Big
Codec ID : A_AC3
Duration : 2h 31mn
Bit rate mode : Constant
Bit rate : 448 Kbps
Channel(s) : 6 channels
Channel positions : Front: L C R, Side: L R, LFE
Sampling rate : 48.0 KHz
Bit depth : 32 bits
Compression mode : Lossy
Delay relative to video : 2ms
Stream size : 486 MiB (22%)
Language : Russian
Default : Yes
Forced : No
DURATION : 02:31:32.480000000
NUMBER_OF_FRAMES : 286765
NUMBER_OF_BYTES : 513882880
_STATISTICS_WRITING_APP : mkvmerge v8.9.0 (''Father Daughter'') 32bit
_STATISTICS_WRITING_DATE_UTC : 2020-01-11 21:25:15
_STATISTICS_TAGS : BPS DURATION NUMBER_OF_FRAMES NUMBER_OF_BYTES








   Похожие торренты   Торрент   Размер 
В этой теме нет новых непрочитанных сообщений. Бой / War (Сиддхарт Ананд) [2019, боевик, триллер, HDRip] VO

9 | 0

2.16 ГБ

В этой теме нет новых непрочитанных сообщений. Охранник / Kaappaan (Ананд К.В.) [2019, боевик, триллер, WEB-DLRip] MVO

2 | 0

2.06 ГБ

В этой теме нет новых непрочитанных сообщений. Курьер / The Courier (Закари Адлер) [2019, боевик, триллер, драма, HDRip-AVC] DUB

62 | 5

1.46 ГБ

В этой теме нет новых непрочитанных сообщений. Три секунды / The Informer (Андреа Ди Стефано) [2019, триллер, криминал, боевик, HDRip-AVC] DUB

75 | 0

2.18 ГБ

В этой теме нет новых непрочитанных сообщений. Рэмбо: Последняя кровь / Rambo: Last Blood (Адриан Грюнберг) [2019, боевик, триллер, приключения, HDRip-AVC] DUB

65 | 6

2.18 ГБ

В этой теме нет новых непрочитанных сообщений. Герой (Карен Оганесян) [2019, криминал, триллер, боевик, комедия, WEBDLRip-AVC]

13 | 0

1.46 ГБ

В этой теме нет новых непрочитанных сообщений. Решала. Нулевые (Жаргал Бадмацыренов, Александр Кузьминов, Евгений Замалиев) [2019, боевик, драма, триллер, WEB-DLRip-AVC]

193 | 8

1.45 ГБ




Вы не можете начинать темы
Вы не можете отвечать на сообщения
Вы не можете редактировать свои сообщения
Вы не можете удалять свои сообщения
Вы не можете добавлять вложения

Перейти:  
 Вход
ppkBB3cker v.2 © 2008-2014 @ PPK
[ Time : 0.018s | 16 Queries | GZIP : Off ]

cron