img image001 image001 image001 image001 image001 image001 image001 image001 image001 image001 image001 image001 image001 image001 image001

Planets Sun Sun Sun
Статистика раздачи
Автор: Снежана | Размер: 2.81 ГБ | Добавлен: 12 фев 2020
Раздают: 12    Качают: 0
Скачать торрент
Скачать торрент
Описание торрента

СообщениеДобавлено: 12 фев 2020 

Странные дни / Strange Days

Перевод: Профессиональный (многоголосый, закадровый), cубтитры: отсутствуют
Формат: HDRip-AVC, MKV, H.264, AC3
Страна: США
Режиссер: Кэтрин Бигелоу
Жанр: фантастика, драма, криминал, боевик, триллер
Продолжительность: 02:25:11
Год выпуска: 1995
В ролях: Рэйф Файнс, Анджела Бассетт, Джульетт Льюис, Том Сайзмор, Майкл Уинкотт, Винсент Д`Онофрио, Гленн Пламмер, Брижит Бако, Ричард Эдсон, Уильям Фихтнер, Йозеф Зоммер, Джо Урла, Никки Кэтт, Майкл Джейс, Луиз Лекавалье, Дэвид Каррера, Джим Исида, Тодд Графф, Малкольм Норрингтон, Аней Муноз, Тэд Хэйлер, Рио Хекфорд, Брук Сьюзэн Паркер, Брэндон Хэммонд, Дональд ’Донни’ Янг, Б.Дж. Крокетт, Декс Эллиот Сандерс, Ронни Уиллис, Дэвид Пэкер, Пауло Тока, Джеймс Муро, Рон Янг, Арт Чудабала, Эрика Келли, Рэй Чанг, Билли Уорли

Описание: Действие разворачивается в очень неспокойном Лос-Анджелесе в предновогодние дни 1999 года. Ленни Нэро — бывший полицейский, а ныне подпольный торговец воспоминаниями. Записанные на маленькие цифровые диски, чужие воспоминания и переживания - самый ходовой товар альтернативного будущего. Надеваемый на голову прибор позволяет ощутить всю гамму запретных ощущений: изменить жене с девушкой или поучаствовать в ограблении. Для Ленни существует лишь одно табу — он не «работает» с записями смертей. Но однажды, в канун нового года, в руках Нэро оказывается таинственный диск, где запечатлена жуткая смерть его знакомой девушки. Пробудившийся инстинкт бывшего сыщика заставляет Ленни расследовать обстоятельства страшного убийства... (Википедия)



Видео: 1024x432 (2.40:1), 23.976 fps, AVC MPEG4 (x264), , ~1935 kbps avg, 0.182 bit/pixel
Аудио #1: Русский:48 kHz, AC3 Dolby Digital, 3/2 (L,C,R,l,r) + LFE ch, ~384 kbps [Профессиональный (многоголосый, закадровый)]
Аудио #2: Английский:48 kHz, AC3 Dolby Digital, 3/2 (L,C,R,l,r) + LFE ch, ~448 kbps [Оригинал]
General
Unique ID : 218209404381303440482112591188205589102 (0xA4299A44499DE69A8D264FCC761D526E)
Complete name : C:\Users\123\Desktop\Странные дни.1995.HDRip-AVC_[tfile.ru].mkv
Format : Matroska
Format version : Version 4 / Version 2
File size : 2.81 GiB
Duration : 2 h 25 min
Overall bit rate mode : Constant
Overall bit rate : 2 766 kb/s
Movie name : Rip by msltel
Encoded date : UTC 2020-02-11 11:28:30
Writing application : mkvmerge v7.4.0 (''Circles'') 64bit built on Dec 12 2014 12:19:56
Writing library : libebml v1.3.0 + libmatroska v1.4.1

Video
ID : 1
Format : AVC
Format/Info : Advanced Video Codec
Format profile :
Format settings, CABAC : Yes
Format settings, RefFrames : 2 frames
Format settings, GOP : M=1, N=25
Codec ID : V_MPEG4/ISO/AVC
Duration : 2 h 25 min
Bit rate mode : Constant
Bit rate : 1 935 kb/s
Width : 1 024 pixels
Height : 432 pixels
Display aspect ratio : 2.40:1
Frame rate mode : Constant
Frame rate : 23.976 (24000/1001) FPS
Color space : YUV
Chroma subsampling : 4:2:0
Bit depth : 8 bits
Scan type : Progressive
Bits/(Pixel*Frame) : 0.182
Stream size : 1.96 GiB (70%)
Language : English
Default : Yes
Forced : No

Audio #1
ID : 2
Format : AC-3
Format/Info : Audio Coding 3
Format settings, Endianness : Big
Codec ID : A_AC3
Duration : 2 h 25 min
Bit rate mode : Constant
Bit rate : 384 kb/s
Channel(s) : 6 channels
Channel positions : Front: L C R, Side: L R, LFE
Sampling rate : 48.0 kHz
Frame rate : 31.250 FPS (1536 SPF)
Bit depth : 16 bits
Compression mode : Lossy
Stream size : 399 MiB (14%)
Title : MVO R5
Language : Russian
Service kind : Complete Main
Default : Yes
Forced : No

Audio #2
ID : 3
Format : AC-3
Format/Info : Audio Coding 3
Format settings, Endianness : Big
Codec ID : A_AC3
Duration : 2 h 25 min
Bit rate mode : Constant
Bit rate : 448 kb/s
Channel(s) : 6 channels
Channel positions : Front: L C R, Side: L R, LFE
Sampling rate : 48.0 kHz
Frame rate : 31.250 FPS (1536 SPF)
Bit depth : 16 bits
Compression mode : Lossy
Stream size : 465 MiB (16%)
Title : original
Language : English
Service kind : Complete Main
Default : No
Forced : No










   Похожие торренты   Торрент   Размер 
В этой теме нет новых непрочитанных сообщений. Судья Дредд / Judge Dredd (Дэнни Кэннон) [1995, фантастика, боевик, триллер, криминал, HDRip-AVC] MVO / Фантастика

0 | 0

2.17 ГБ

В этой теме нет новых непрочитанных сообщений. Судья Дредд / Judge Dredd (Дэнни Кэннон) [1995, фантастика, боевик, триллер, криминал, BDRip] DVO / Фантастика

10 | 0

1.46 ГБ

В этой теме нет новых непрочитанных сообщений. Детройт / Detroit (Кэтрин Бигелоу) [2017, триллер, драма, криминал, история, BDRip] MVO

6 | 0

1.46 ГБ

В этой теме нет новых непрочитанных сообщений. Детройт / Detroit (Кэтрин Бигелоу) [2017, триллер, драма, криминал, история, BDRip] MVO

7 | 2

2.18 ГБ

В этой теме нет новых непрочитанных сообщений. Детройт / Detroit (Кэтрин Бигелоу) [2017, триллер, драма, криминал, история, BDRip] MVO

19 | 6

1.46 ГБ

В этой теме нет новых непрочитанных сообщений. На гребне волны / Point Break (Кэтрин Бигелоу) [Open Matte] [1991, боевик, триллер, криминал, WEB-DLRip-AVC] MVO / Боевики /Action

6 | 0

744.83 МБ

В этой теме нет новых непрочитанных сообщений. Капкан времени / Slipstream (Дэвид ван Эйссен) [2005, фантастика, боевик, триллер, HDRip-AVC] DVO / Фантастика

1 | 0

1.46 ГБ




Вы не можете начинать темы
Вы не можете отвечать на сообщения
Вы не можете редактировать свои сообщения
Вы не можете удалять свои сообщения
Вы не можете добавлять вложения

Перейти:  
 Вход
ppkBB3cker v.2 © 2008-2014 @ PPK
[ Time : 0.058s | 16 Queries | GZIP : Off ]

cron