img image001 image001 image001 image001 image001 image001 image001 image001 image001 image001 image001 image001 image001 image001 image001

Planets Sun Sun Sun
Статистика раздачи
Автор: Снежана | Размер: 2.83 ГБ | Добавлен: 24 мар 2020
Раздают: 291    Качают: 19

Скачать торрент
Скачать торрент
Описание торрента

СообщениеДобавлено: 24 мар 2020 

Звёздные войны: Скайуокер. Восход / Star Wars: Episode IX - The Rise of Skywalker

Перевод: Профессиональный (полное дублирование)iTunes, cубтитры: Русские, английские внешные
Формат: BDRip-AVC, MKV, x264, AC3
Страна: США
Режиссер: Джей Джей Абрамс
Жанр: боевик, фэнтези, приключения, фантастика
Продолжительность: 02:21:53
Год выпуска: 2019

В ролях: Дэйзи Ридли, Адам Драйвер, Кэрри Фишер, Марк Хэмилл, Джон Бойега, Оскар Айзек, Энтони Дэниелс, Наоми Аки, Донал Глисон, Ричард Э. Грант

Описание: Фильм завершает невероятную историю семьи Скайуокеров, длящуюся уже более сорока лет, и обещает дать ответы на все загадки из предыдущих серий. Зрителя ожидают старые и новые герои, уникальные миры, увлекательные путешествия на край Галактики и грандиозный финал фантастической саги.

PG-13

Видео: 1024x428 (2,40:1), 23,976 fps, MPEG-4 AVC ~ 2026 Kbps avg, 0.193 bit/pixel
Аудио№1: Русский: 48 kHz, AC3 Dolby Digital, 6/0 ch, ~384 kbps Профессиональный (полное дублирование)
Аудио№2: Английский: 48 kHz, AC3 Dolby Digital, 6/0 ch, ~448 kbps Оригинал




Общее
Уникальный идентификатор : 132499190040246410444503051338829180929 (0x63AE6A6FF06F0CA64DB0637A5662B001)
Полное имя : Star.Wars.Episode.IX.The.Rise.of.Skywalker.2019.iT.x264.BDRip.2.83.Gb.mkv
Формат : Matroska
Версия формата : Version 4
Размер файла : 2,83 Гбайт
Продолжительность : 2 ч. 21 м.
Общий поток : 2860 Кбит/сек
Название фильма : Звёздные войны: Скайуокер. Восход / Star Wars: Episode IX - The Rise of Skywalker (2019)
Дата кодирования : UTC 2020-03-19 20:27:21
Программа кодирования : mkvmerge v41.0.0 (''Smarra'') 64-bit
Библиотека кодирования : libebml v1.3.9 + libmatroska v1.5.2
Обложка : Yes
Attachments : cover.jpg

Видео
Идентификатор : 1
Формат : AVC
Формат/Информация : Advanced Video Codec
Профиль формата :
Настройки формата : CABAC / 9 Ref Frames
Параметр CABAC формата : Да
Параметр RefFrames формата : 9 кадров
Идентификатор кодека : V_MPEG4/ISO/AVC
Продолжительность : 2 ч. 21 м.
Битрейт : 2026 Кбит/сек
Ширина : 1024 пикселя
Высота : 428 пикселей
Соотношение сторон : 2,40:1
Режим частоты кадров : Постоянный
Частота кадров : 23,976 кадра/сек
Цветовое пространство : YUV
Субдискретизация насыщенности : 4:2:0
Битовая глубина : 8 бит
Тип развёртки : Прогрессивная
Бит/(Пиксели*Кадры) : 0.193
Размер потока : 2,01 Гбайт (71%)
Заголовок : #stillet
Библиотека кодирования : x264 core 152 r2851bm ba24899
Настройки программы : cabac=1 / ref=9 / deblock=1:-3:-3 / analyse=0x3:0x113 / me=umh / subme=11 / psy=1 / psy_rd=1.00:0.15 / mixed_ref=1 / me_range=32 / chroma_me=1 / trellis=2 / 8x8dct=1 / cqm=0 / deadzone=21,11 / fast_pskip=0 / chroma_qp_offset=-3 / threads=8 / lookahead_threads=3 / sliced_threads=0 / nr=0 / decimate=0 / interlaced=0 / bluray_compat=0 / constrained_intra=0 / bframes=10 / b_pyramid=2 / b_adapt=2 / b_bias=0 / direct=3 / weightb=1 / open_gop=0 / weightp=2 / keyint=240 / keyint_min=23 / scenecut=40 / intra_refresh=0 / rc=2pass / mbtree=0 / bitrate=2026 / ratetol=1.0 / qcomp=0.60 / qpmin=0 / qpmax=69 / qpstep=4 / cplxblur=20.0 / qblur=0.5 / ip_ratio=1.40 / pb_ratio=1.30 / aq=1:1.00
Язык : English
Default : Да
Forced : Нет

Аудио #1
Идентификатор : 2
Формат : AC-3
Формат/Информация : Audio Coding 3
Коммерческое название : Dolby Digital
Идентификатор кодека : A_AC3
Продолжительность : 2 ч. 21 м.
Вид битрейта : Постоянный
Битрейт : 384 Кбит/сек
Каналы : 6 каналов
ChannelLayout : L R C LFE Ls Rs
Частота : 48,0 КГц
Частота кадров : 31,250 кадров/сек (1536 SPF)
Метод сжатия : С потерями
Размер потока : 390 Мбайт (13%)
Заголовок : iTunes
Язык : Russian
Default : Да
Forced : Да

Аудио #2
Идентификатор : 3
Формат : AC-3
Формат/Информация : Audio Coding 3
Коммерческое название : Dolby Digital
Идентификатор кодека : A_AC3
Продолжительность : 2 ч. 21 м.
Вид битрейта : Постоянный
Битрейт : 448 Кбит/сек
Каналы : 6 каналов
ChannelLayout : L R C LFE Ls Rs
Частота : 48,0 КГц
Частота кадров : 31,250 кадров/сек (1536 SPF)
Метод сжатия : С потерями
Размер потока : 455 Мбайт (16%)
Язык : English
Default : Нет
Forced : Нет

Текст #1
Идентификатор : 4
Формат : UTF-8
Идентификатор кодека : S_TEXT/UTF8
Идентификатор кодека/Информация : UTF-8 Plain Text
Продолжительность : 2 ч. 12 м.
Битрейт : 1 бит/сек
ElementCount : 11
Размер потока : 1,03 Кбайт (0%)
Заголовок : Forced (Enigma)
Язык : Russian
Default : Да
Forced : Да

Текст #2
Идентификатор : 5
Формат : UTF-8
Идентификатор кодека : S_TEXT/UTF8
Идентификатор кодека/Информация : UTF-8 Plain Text
Продолжительность : 2 ч. 21 м.
Битрейт : 58 бит/сек
ElementCount : 1442
Размер потока : 60,8 Кбайт (0%)
Заголовок : Full
Язык : Russian
Default : Нет
Forced : Нет

Текст #3
Идентификатор : 6
Формат : UTF-8
Идентификатор кодека : S_TEXT/UTF8
Идентификатор кодека/Информация : UTF-8 Plain Text
Продолжительность : 2 ч. 11 м.
Битрейт : 77 бит/сек
ElementCount : 1772
Размер потока : 74,7 Кбайт (0%)
Заголовок : SDH (Fadeev)
Язык : Russian
Default : Нет
Forced : Нет

Текст #4
Идентификатор : 7
Формат : UTF-8
Идентификатор кодека : S_TEXT/UTF8
Идентификатор кодека/Информация : UTF-8 Plain Text
Продолжительность : 2 ч. 8 м.
Битрейт : 42 бит/сек
ElementCount : 1531
Размер потока : 39,8 Кбайт (0%)
Язык : English
Default : Нет
Forced : Нет

Меню
00:00:00.000 : :Chapter 1
00:00:09.217 : :Chapter 2
00:03:47.435 : :Chapter 3
00:03:47.936 : :Chapter 4
00:06:42.485 : :Chapter 5
00:08:26.214 : :Chapter 6
00:10:04.896 : :Chapter 7
00:12:48.267 : :Chapter 8
00:13:54.125 : :Chapter 9
00:15:17.541 : :Chapter 10
00:17:13.282 : :Chapter 11
00:19:24.621 : :Chapter 12
00:21:28.704 : :Chapter 13
00:25:27.818 : :Chapter 14
00:27:15.008 : :Chapter 15
00:30:41.673 : :Chapter 16
00:35:49.188 : :Chapter 17
00:41:37.787 : :Chapter 18
00:43:15.384 : :Chapter 19
00:45:28.475 : :Chapter 20
00:48:24.401 : :Chapter 21
00:54:37.691 : :Chapter 22
00:58:49.317 : :Chapter 23
01:02:54.896 : :Chapter 24
01:06:23.104 : :Chapter 25
01:09:54.732 : :Chapter 26
01:13:07.508 : :Chapter 27
01:18:23.740 : :Chapter 28
01:23:41.349 : :Chapter 29
01:27:02.675 : :Chapter 30
01:30:23.251 : :Chapter 31
01:35:00.945 : :Chapter 32
01:38:48.005 : :Chapter 33
01:40:35.446 : :Chapter 34
01:43:03.260 : :Chapter 35
01:45:27.988 : :Chapter 36
01:48:47.813 : :Chapter 37
01:53:27.759 : :Chapter 38
01:55:30.882 : :Chapter 39
01:59:02.885 : :Chapter 40
02:01:37.874 : :Chapter 41
02:05:20.554 : :Chapter 42
02:09:42.358 : :Chapter 43
02:12:25.354 : :Chapter 44







   Похожие торренты   Торрент   Размер 
В этой теме нет новых непрочитанных сообщений. Звёздные войны: Скайуокер. Восход / Star Wars: Episode IX - The Rise of Skywalker (Джей Джей Абрамс) [2019, боевик, фэнтези, приключения, фантастика, TeleSynch] DUB

15 | 5

2.05 ГБ

В этой теме нет новых непрочитанных сообщений. Звёздные войны: Скайуокер. Восход / Star Wars: Episode IX - The Rise of Skywalker (Джей Джей Абрамс) [2019, боевик, фэнтези, приключения, фантастика, TeleCine] DUB

47 | 1

2.05 ГБ

В этой теме нет новых непрочитанных сообщений. Звёздные войны: Скайуокер. Восход / Star Wars: Episode IX - The Rise of Skywalker (Джей Джей Абрамс) [2019, боевик, фэнтези, приключения, фантастика, WEBDLRip] DUB

34 | 3

1.46 ГБ

В этой теме нет новых непрочитанных сообщений. Звёздные войны: Пробуждение силы / Star Wars: Episode VII - The Force Awakens (Джей Джей Абрамс) [2015, фантастика, фэнтези, CamRip] DUB

3387 | 288

1.37 ГБ

В этой теме нет новых непрочитанных сообщений. Звёздные войны: Последние джедаи / Star Wars: Episode VIII - The Last Jedi (Райан Джонсон) [2017, фантастика, фэнтези, боевик, приключения, BDRip] DUB / Фантастика

32 | 0

2.18 ГБ

В этой теме нет новых непрочитанных сообщений. Звёздные войны: Последние джедаи / Star Wars: Episode VIII - The Last Jedi (Райан Джонсон) [2017, фантастика, фэнтези, боевик, приключения, BDRip-AVC] DUB / Фантастика

21 | 0

2.18 ГБ

В этой теме нет новых непрочитанных сообщений. Звёздные войны: Последние джедаи / Star Wars: Episode VIII - The Last Jedi (Райан Джонсон) [2017, фантастика, фэнтези, боевик, приключения, HDRip] DUB / Фантастика

46 | 0

1.46 ГБ




Вы не можете начинать темы
Вы не можете отвечать на сообщения
Вы не можете редактировать свои сообщения
Вы не можете удалять свои сообщения
Вы не можете добавлять вложения

Перейти:  
 Вход
ppkBB3cker v.2 © 2008-2014 @ PPK
[ Time : 0.035s | 18 Queries | GZIP : Off ]

cron