img image001 image001 image001 image001 image001 image001 image001 image001 image001 image001 image001 image001 image001 image001 image001

Planets Sun Sun Sun

COVID-19 - Последняя информация о коронавирусе на сайте Минздрава


Статистика раздачи
Автор: Снежана | Размер: 2.19 ГБ | Добавлен: 24 мар 2020
Раздают: 24    Качают: 1


Скачать торрент
Скачать торрент
Описание торрента

СообщениеДобавлено: 24 мар 2020 

Человек-невидимка / The Invisible Man

Перевод: Любительский (многоголосый закадровый) [Mallorn], cубтитры: отсутствуют
Формат: WEBDLRip-AVC, MKV, H.264, AC3
Страна: Австралия, США, Канада, Великобритания
Режиссер: Ли Уоннелл
Жанр: ужасы, фантастика, триллер, детектив
Продолжительность: 02:04:22
Год выпуска: 2020
В ролях: Элизабет Мосс, Оливер Джексон-Коэн, Харриет Дайер, Элдис Ходж, Сторм Рейд, Майкл Дорман, Бенедикт Харди, Рени Лим, Брайан Миган, Ник Кичи

Описание: На первый взгляд жизнь Сесилии кажется безупречной: огромный дом, бойфренд - гениальный ученый-миллионер. Но никто не знает, что на самом деле происходит за высокими стенами роскошного особняка... И даже идеально спланированный побег оказывается ловушкой. Невозможно спрятаться от преследователя, которого не видишь.



Видео: 1024x432 (2.40:1), 23.976 fps, AVC MPEG4 (x264), , ~2067 kbps avg, 0.195 bit/pixel
Аудио: 48 kHz, AC3 Dolby Digital, 3/2 (L,C,R,l,r) + LFE ch, ~448 kbps
General
Unique ID : 25353719599075957343841244248251057734 (0x1312F2E3192D5A87748B78FB10744646)
Complete name : C:\Users\123\Desktop\The.Invisible.Man.2020.WEB-DLRip-AVC_[tfile.ru].mkv
Format : Matroska
Format version : Version 4 / Version 2
File size : 2.19 GiB
Duration : 2h 4mn
Overall bit rate mode : Constant
Overall bit rate : 2 515 Kbps
Encoded date : UTC 2020-03-22 17:33:59
Writing application : Lavf56.36.100
Writing library : Lavf56.36.100

Video
ID : 2
Format : AVC
Format/Info : Advanced Video Codec
Format profile :
Format settings, CABAC : Yes
Format settings, ReFrames : 2 frames
Format settings, GOP : M=1, N=25
Codec ID : V_MPEG4/ISO/AVC
Duration : 2h 4mn
Bit rate mode : Constant
Bit rate : 2 067 Kbps
Width : 1 024 pixels
Height : 432 pixels
Display aspect ratio : 2.40:1
Frame rate mode : Constant
Frame rate : 23.976 fps
Color space : YUV
Chroma subsampling : 4:2:0
Bit depth : 8 bits
Scan type : Progressive
Bits/(Pixel*Frame) : 0.195
Stream size : 1.75 GiB (80%)
Language : English
Default : Yes
Forced : No
DURATION : 02:04:22.539000000
NUMBER_OF_FRAMES : 178922
NUMBER_OF_BYTES : 1459459788
_STATISTICS_WRITING_APP : mkvmerge v7.4.0 (''Circles'') 64bit built on Dec 12 2014 12:19:56
_STATISTICS_WRITING_DATE_UTC : 2020-03-22 17:33:59
_STATISTICS_TAGS : BPS DURATION NUMBER_OF_FRAMES NUMBER_OF_BYTES

Audio
ID : 1
Format : AC-3
Format/Info : Audio Coding 3
Mode extension : CM (complete main)
Format settings, Endianness : Big
Codec ID : A_AC3
Duration : 2h 4mn
Bit rate mode : Constant
Bit rate : 448 Kbps
Channel(s) : 6 channels
Channel positions : Front: L C R, Side: L R, LFE
Sampling rate : 48.0 KHz
Bit depth : 32 bits
Compression mode : Lossy
Stream size : 399 MiB (18%)
Default : Yes
Forced : No
DURATION : 02:04:22.560000000
NUMBER_OF_FRAMES : 233205
NUMBER_OF_BYTES : 417903360
_STATISTICS_WRITING_APP : mkvmerge v7.4.0 (''Circles'') 64bit built on Dec 12 2014 12:19:56
_STATISTICS_WRITING_DATE_UTC : 2020-03-22 17:33:59
_STATISTICS_TAGS : BPS DURATION NUMBER_OF_FRAMES NUMBER_OF_BYTES








   Похожие торренты   Торрент   Размер 
В этой теме нет новых непрочитанных сообщений. Человек-невидимка / The Invisible Man (Ли Уоннелл) [2020, фантастика, детектив, ужасы, триллер, TeleSynch] MVO

8 | 1

1.36 ГБ

В этой теме нет новых непрочитанных сообщений. Человек-невидимка / The Invisible Man (Ли Уоннелл) [2020, ужасы, фантастика, триллер, детектив, WEB-DLRip] MVO

32 | 0

1.47 ГБ

В этой теме нет новых непрочитанных сообщений. Человек-невидимка / The Invisible Man (Ли Уоннелл) [2020, ужасы, фантастика, триллер, детектив, WEB-DLRip] DUB

2093 | 32

1.46 ГБ

В этой теме нет новых непрочитанных сообщений. Человек-невидимка / The Invisible Man (Ли Уоннелл) [2020, ужасы, фантастика, триллер, детектив, WEB-DLRip] DUB

10 | 0

1.34 ГБ

В этой теме нет новых непрочитанных сообщений. Апгрейд / Upgrade (Ли Уоннелл) [2018, фантастика, боевик, триллер, детектив, криминал, WEBDLRip] MVO

45 | 4

1.37 ГБ

В этой теме нет новых непрочитанных сообщений. Видеорегистратор / Body Cam (Малик Бут) [2020, ужасы, триллер, детектив, WEBDLRip-AVC] MVO

74 | 0

1.46 ГБ

В этой теме нет новых непрочитанных сообщений. Апгрейд / Upgrade (Ли Уоннелл) [2018, фантастика, боевик, триллер, детектив, криминал, BDRip-AVC] MVO

52 | 0

2.01 ГБ




Вы не можете начинать темы
Вы не можете отвечать на сообщения
Вы не можете редактировать свои сообщения
Вы не можете удалять свои сообщения
Вы не можете добавлять вложения

Перейти:  
Контактная информация: rstracker[пёсик]yandex.ru
 Вход
ppkBB3cker v.2 © 2008-2014 @ PPK
[ Time : 4.332s | 17 Queries | GZIP : Off ]

cron