img image001 image001 image001 image001 image001 image001 image001 image001 image001 image001 image001 image001 image001 image001 image001

Planets Sun Sun Sun
Статистика раздачи
Автор: Снежана | Размер: 1.46 ГБ | Добавлен: 24 мар 2020
Раздают: 33    Качают: 1

Скачать торрент
Скачать торрент
Описание торрента

СообщениеДобавлено: 24 мар 2020 

Хищные птицы: Потрясающая история Харли Квинн / Birds of Prey: And the Fantabulous Emancipation of One Harley Quinn

Перевод: Профессиональный (многоголосый, закадровый) HDrezka Studio, cубтитры: отсутствуют
Формат: WEBDLRip-AVC, MKV, H.264, AC3
Страна: США
Режиссер: Кэти Янь
Жанр: боевик, криминал, комедия
Продолжительность: 01:48:52
Год выпуска: 2020
В ролях: Марго Робби, Джерни Смоллетт, Мэри Элизабет Уинстэд, Рози Перес, Элла Джей Баско, Юэн Макгрегор, Крис Мессина, Бояна Новакович, Али Вонг, Дэвид Ури

Описание: Харли Квинн рассталась с Джокером и через некоторое время сообщила об этом всему Готэму, взорвав тот самый химзавод. Девушка больше не тоскует по несостоявшимся отношениям — ей некогда, так как она также потеряла неприкосновенность, и теперь за ней охотятся разной степени криминализованности граждане, которым она когда-либо наносила вред. А в это время ставший крёстным отцом Готема Роман Сайонис очень жаждет вернуть пропавший бриллиант, который стащила у его подручного малолетняя карманница.



Видео: 1024x432 (2.40:1), 23.976 fps, AVC MPEG4 (x264), , ~1733 kbps avg, 0.163 bit/pixel
Аудио: 48 kHz, AC3 Dolby Digital, 2 (L,R) ch, ~192.00 kbps avg
General
Unique ID : 70580094203620312749710092380101787693 (0x35193B5010990C5DC0FA32E36041C02D)
Complete name : C:\Users\123\Desktop\Birds of Prey.2020.WEB-DLRip-AVC_[tfile.ru].mkv
Format : Matroska
Format version : Version 4 / Version 2
File size : 1.46 GiB
Duration : 1h 48mn
Overall bit rate mode : Constant
Overall bit rate : 1 925 Kbps
Movie name : Birds of Prey.2020.WEB-DL.1080p.W
Encoded date : UTC 2020-03-21 20:55:21
Writing application : Lavf56.36.100
Writing library : Lavf56.36.100

Video
ID : 2
Format : AVC
Format/Info : Advanced Video Codec
Format profile :
Format settings, CABAC : Yes
Format settings, ReFrames : 2 frames
Format settings, GOP : M=1, N=25
Codec ID : V_MPEG4/ISO/AVC
Duration : 1h 48mn
Bit rate mode : Constant
Bit rate : 1 733 Kbps
Width : 1 024 pixels
Height : 432 pixels
Display aspect ratio : 2.40:1
Frame rate mode : Constant
Frame rate : 23.976 fps
Color space : YUV
Chroma subsampling : 4:2:0
Bit depth : 8 bits
Scan type : Progressive
Bits/(Pixel*Frame) : 0.163
Stream size : 1.29 GiB (88%)
Language : English
Default : Yes
Forced : No
DURATION : 01:48:52.693000000
NUMBER_OF_FRAMES : 156628
NUMBER_OF_BYTES : 3717514816
_STATISTICS_WRITING_APP : mkvmerge v23.0.0 (''The Bride Said No'') 64-bit
_STATISTICS_WRITING_DATE_UTC : 2020-03-21 20:55:21
_STATISTICS_TAGS : BPS DURATION NUMBER_OF_FRAMES NUMBER_OF_BYTES

Audio
ID : 1
Format : AC-3
Format/Info : Audio Coding 3
Mode extension : CM (complete main)
Format settings, Endianness : Big
Codec ID : A_AC3
Duration : 1h 48mn
Bit rate mode : Constant
Bit rate : 192 Kbps
Channel(s) : 2 channels
Channel positions : Front: L R
Sampling rate : 48.0 KHz
Bit depth : 32 bits
Compression mode : Lossy
Stream size : 150 MiB (10%)
Title : MVO | HDRezka Studio
Language : Russian
Default : Yes
Forced : No
DURATION : 01:48:51.680000000
NUMBER_OF_FRAMES : 204115
NUMBER_OF_BYTES : 156760320
_STATISTICS_WRITING_APP : mkvmerge v23.0.0 (''The Bride Said No'') 64-bit
_STATISTICS_WRITING_DATE_UTC : 2020-03-21 20:55:21
_STATISTICS_TAGS : BPS DURATION NUMBER_OF_FRAMES NUMBER_OF_BYTES








   Похожие торренты   Торрент   Размер 
В этой теме нет новых непрочитанных сообщений. Хищные птицы: Потрясающая история Харли Квинн / Birds of Prey: And the Fantabulous Emancipation of One Harley Quinn (Кэти Янь) [2020, криминал, боевик, комедия, WEBRip] MVO

34 | 0

2.06 ГБ

В этой теме нет новых непрочитанных сообщений. Хищные птицы: Потрясающая история Харли Квинн / Birds of Prey: And the Fantabulous Emancipation of One Harley Quinn (Кэти Янь) [2020, криминал, боевик, комедия, TeleSynch] DUB

162 | 2

1.37 ГБ

В этой теме нет новых непрочитанных сообщений. Бэтмен и Харли Квинн / Batman and Harley Quinn (Сэм Лью) [2017, мультфильм, фантастика, фэнтези, боевик, комедия, приключения, WEBDLRip] MVO

4 | 0

737.43 МБ

В этой теме нет новых непрочитанных сообщений. Харли Квинн / Harley Quinn (Сесилия Аранович) [2019, мультсериал для взрослых, фантастика, фэнтези, боевик, комедия, криминал, детектив, WEB-DL 2160pp]

1 | 0

3.73 ГБ

В этой теме нет новых непрочитанных сообщений. Харли Квинн, 1 сезон 1-13 серии из 13 / Harley Quinn (Сесилия Аранович) [2019, мультсериал для взрослых, фантастика, фэнтези, боевик, комедия, криминал, детектив, WEB-DL 2160p]

3 | 0

24.15 ГБ

В этой теме нет новых непрочитанных сообщений. Харли Квинн, 1 сезон 1-6 серии из 13 / Harley Quinn (Сесилия Аранович) [2019, мультсериал для взрослых, фантастика, фэнтези, боевик, комедия, криминал, детектив, WEB-DL 2160p]

0 | 0

11.12 ГБ

В этой теме нет новых непрочитанных сообщений. Харли Квинн, 1 сезон 1-5 серии из 13 / Harley Quinn (Сесилия Аранович) [2019, мультсериал для взрослых, фантастика, фэнтези, боевик, комедия, криминал, детектив, WEB-DL 2160p]

0 | 0

9.25 ГБ




Вы не можете начинать темы
Вы не можете отвечать на сообщения
Вы не можете редактировать свои сообщения
Вы не можете удалять свои сообщения
Вы не можете добавлять вложения

Перейти:  
 Вход
ppkBB3cker v.2 © 2008-2014 @ PPK
[ Time : 0.025s | 16 Queries | GZIP : Off ]

cron