img image001 image001 image001 image001 image001 image001 image001 image001 image001 image001 image001 image001 image001 image001 image001

Planets Sun Sun Sun
Статистика раздачи
Автор: Снежана | Размер: 1.46 ГБ | Добавлен: 24 мар 2020
Раздают: 27    Качают: 2

Скачать торрент
Скачать торрент
Описание торрента

СообщениеДобавлено: 24 мар 2020 

Платформа / El hoyo

Перевод: Любительский (одноголосый) datynet, cубтитры: отсутствуют
Формат: WEBDLRip-AVC, MKV, H.264, AC3
Страна: Испания
Режиссер: Гальдер Гастелу-Уррутия
Жанр: ужасы, фантастика, триллер
Продолжительность: 01:34:50
Год выпуска: 2019
В ролях: Иван Массаге, Сорион Эгилеор, Антония Сан Хуан, Эмилио Буале, Александра Масангкай, Зихара Льана, Марио Пардо, Альгис Арлаускас, Тсубио Фернандес, Эрик Гуд

Описание: Несколько человек просыпается в некой многоэтажной подземной тюрьме, в которую они попали добровольно. На каждом уровне находятся двое заключённых, а сколько всего уровней — неизвестно. Все этажи связывает между собой общий колодец, через который раз в день опускается платформа с едой. На ней — немыслимое количество блюд, но чем ниже живут заключённые, тем меньше шансов, что они что-то получат.



Видео: 1024x432 (2.40:1), 23.976 fps, AVC MPEG4 (x264), , ~2013 kbps avg, 0.190 bit/pixel
Аудио: 48 kHz, AC3 Dolby Digital, 2 (L,R) ch, ~192.00 kbps avg

Доп. информация:
РЕКЛАМЫ НЕТ !
General
Unique ID : 295866513125532675313862947899667618777 (0xDE95D155E69285617399E22AB07F9BD9)
Complete name : C:\Users\123\Desktop\The.Platform.2019.NF.WEB-DLRip-AVC_[tfile.ru].mkv
Format : Matroska
Format version : Version 4 / Version 2
File size : 1.46 GiB
Duration : 1h 34mn
Overall bit rate mode : Constant
Overall bit rate : 2 205 Kbps
Movie name : CM
Encoded date : UTC 2020-03-23 04:22:31
Writing application : Lavf56.36.100
Writing library : Lavf56.36.100

Video
ID : 2
Format : AVC
Format/Info : Advanced Video Codec
Format profile :
Format settings, CABAC : Yes
Format settings, ReFrames : 2 frames
Format settings, GOP : M=1, N=25
Codec ID : V_MPEG4/ISO/AVC
Duration : 1h 34mn
Bit rate mode : Constant
Bit rate : 2 013 Kbps
Width : 1 024 pixels
Height : 432 pixels
Display aspect ratio : 2.40:1
Frame rate mode : Constant
Frame rate : 23.976 fps
Color space : YUV
Chroma subsampling : 4:2:0
Bit depth : 8 bits
Scan type : Progressive
Bits/(Pixel*Frame) : 0.190
Stream size : 1.30 GiB (89%)
Language : English
Default : Yes
Forced : No
DURATION : 01:34:49.920000000
NUMBER_OF_FRAMES : 142248
NUMBER_OF_BYTES : 4968499665
_STATISTICS_WRITING_APP : mkvmerge v7.4.0 (''Circles'') 64bit built on Dec 12 2014 12:19:56
_STATISTICS_WRITING_DATE_UTC : 2020-03-23 04:22:31
_STATISTICS_TAGS : BPS DURATION NUMBER_OF_FRAMES NUMBER_OF_BYTES

Audio
ID : 1
Format : AC-3
Format/Info : Audio Coding 3
Mode extension : CM (complete main)
Format settings, Endianness : Big
Codec ID : A_AC3
Duration : 1h 34mn
Bit rate mode : Constant
Bit rate : 192 Kbps
Channel(s) : 2 channels
Channel positions : Front: L R
Sampling rate : 48.0 KHz
Bit depth : 32 bits
Compression mode : Lossy
Stream size : 130 MiB (9%)
Title : datynet
Language : Russian
Default : Yes
Forced : No
DURATION : 01:34:50.528000000
NUMBER_OF_FRAMES : 177829
NUMBER_OF_BYTES : 136572672
_STATISTICS_WRITING_APP : mkvmerge v7.4.0 (''Circles'') 64bit built on Dec 12 2014 12:19:56
_STATISTICS_WRITING_DATE_UTC : 2020-03-23 04:22:31
_STATISTICS_TAGS : BPS DURATION NUMBER_OF_FRAMES NUMBER_OF_BYTES








   Похожие торренты   Торрент   Размер 
В этой теме нет новых непрочитанных сообщений. Платформа / El hoyo (Гальдер Гастелу-Уррутия) [2019, триллер, ужасы, фантастика, WEB-DLRip] MVO

730 | 51

1.35 ГБ

В этой теме нет новых непрочитанных сообщений. Дитя робота / I Am Mother (Грант Спьютор) [2019, ужасы, фантастика, триллер, драма, BDRip-AVC] DUB / Фантастика

9 | 0

2.18 ГБ

В этой теме нет новых непрочитанных сообщений. Человек-невидимка / The Invisible Man (Ли Уоннелл) [2020, ужасы, фантастика, триллер, детектив, WEBDLRip-AVC] MVO

58 | 2

2.19 ГБ

В этой теме нет новых непрочитанных сообщений. Ассимиляция / Assimilate (Джон Марловски) [2019, ужасы, фантастика, триллер, WEBDLRip] MVO

3 | 0

1.46 ГБ

В этой теме нет новых непрочитанных сообщений. Девятая (Николай Хомерики) [2019, Триллер, приключения, детектив, ужасы, WEB-DLRip-AVC] / Фантастика

1 | 0

1.46 ГБ

В этой теме нет новых непрочитанных сообщений. Дитя робота / I Am Mother (Грант Спьютор ) [2019, ужасы, фантастика, триллер, драма, WEBDLRip] DUB

30 | 0

1.46 ГБ

В этой теме нет новых непрочитанных сообщений. Пароль: Хаус / H0us3 (Маноло Мунгуйя) [2019, фантастика, триллер, ужасы, WEBDLRip] DUB

22 | 1

1.46 ГБ




Вы не можете начинать темы
Вы не можете отвечать на сообщения
Вы не можете редактировать свои сообщения
Вы не можете удалять свои сообщения
Вы не можете добавлять вложения

Перейти:  
 Вход
ppkBB3cker v.2 © 2008-2014 @ PPK
[ Time : 0.036s | 16 Queries | GZIP : Off ]

cron