img image001 image001 image001 image001 image001 image001 image001 image001 image001 image001 image001 image001 image001 image001 image001

Planets Sun Sun Sun

COVID-19 - Последняя информация о коронавирусе на сайте Минздрава


Статистика раздачи
Автор: Снежана | Размер: 1.46 ГБ | Добавлен: 25 мар 2020
Раздают: 14    Качают: 3
Скачать торрент
Скачать торрент
Описание торрента

СообщениеДобавлено: 25 мар 2020 

Бессмертный / L''immortale

Перевод: Профессиональный (многоголосый, закадровый) HDRezka Studio, cубтитры: отсутствуют
Формат: BDRip-AVC, MKV, H.264, AC3
Страна: Италия, Германия
Режиссер: Марко Д''Амор
Жанр: драма, криминал
Продолжительность: 01:55:25
Год выпуска: 2019
В ролях: Марко Д''Амор, Джузеппе Айелло, Сальваторе Д''Онофрио, Джанни Вастарелла, Марианна Робустелли, Мартина Аттанасио, Дженнаро Ди Коландреа, Нелло Маския, Алексей Гуськов, Нунцио Коппола

Описание: Тело Чиро тонет в тёмных водах Неаполитанского залива. И по мере того, как он погружается всё глубже и глубже, появляются воспоминания. Приглушенные водой звуки сливаются с криками бегущих людей. Это 1980 год, земля дрожит, здание рушится, но под обломками можно услышать крик новорожденного ребенка. Десять лет спустя мы обнаруживаем, что новорожденный выжил на улицах Неаполя и он уже чей-то сын. Яркие воспоминания о криминальном прошлом, которое сделало его таким, какой он есть: Чиро Ди Марцио ''Бессмертным''.



Видео: 1024x432 (2.40:1), 24 fps, AVC MPEG4 (x264), , ~1365 kbps avg, 0.129 bit/pixel
Аудио: 48 kHz, AC3 Dolby Digital, 3/2 (L,C,R,l,r) + LFE ch, ~448 kbps
General
Unique ID : 93538321757912300680643593794437702667 (0x465ED352CBFC17E353E12370C63AE40B)
Complete name : C:\Users\123\Desktop\The Immortal.2019.BDRip-AVC_[tfile.ru].mkv
Format : Matroska
Format version : Version 4 / Version 2
File size : 1.46 GiB
Duration : 1h 55mn
Overall bit rate mode : Constant
Overall bit rate : 1 813 Kbps
Movie name : L''immortale.2019.BDRip.1080p.W
Encoded date : UTC 2020-03-21 08:04:54
Writing application : Lavf56.36.100
Writing library : Lavf56.36.100

Video
ID : 2
Format : AVC
Format/Info : Advanced Video Codec
Format profile :
Format settings, CABAC : Yes
Format settings, ReFrames : 2 frames
Format settings, GOP : M=1, N=25
Codec ID : V_MPEG4/ISO/AVC
Duration : 1h 55mn
Bit rate mode : Constant
Bit rate : 1 365 Kbps
Width : 1 024 pixels
Height : 432 pixels
Display aspect ratio : 2.40:1
Frame rate mode : Constant
Frame rate : 24.000 fps
Color space : YUV
Chroma subsampling : 4:2:0
Bit depth : 8 bits
Scan type : Progressive
Bits/(Pixel*Frame) : 0.129
Stream size : 1.07 GiB (73%)
Title : M@HD
Language : Italian
Default : Yes
Forced : No
DURATION : 01:55:25.125000000
NUMBER_OF_FRAMES : 166203
NUMBER_OF_BYTES : 8174412566
_STATISTICS_WRITING_APP : mkvmerge v23.0.0 (''The Bride Said No'') 64-bit
_STATISTICS_WRITING_DATE_UTC : 2020-03-21 08:04:54
_STATISTICS_TAGS : BPS DURATION NUMBER_OF_FRAMES NUMBER_OF_BYTES

Audio
ID : 1
Format : AC-3
Format/Info : Audio Coding 3
Mode extension : CM (complete main)
Format settings, Endianness : Big
Codec ID : A_AC3
Duration : 1h 55mn
Bit rate mode : Constant
Bit rate : 448 Kbps
Channel(s) : 6 channels
Channel positions : Front: L C R, Side: L R, LFE
Sampling rate : 48.0 KHz
Bit depth : 32 bits
Compression mode : Lossy
Stream size : 370 MiB (25%)
Title : MVO | HDrezka Studio
Language : Russian
Default : Yes
Forced : No
DURATION : 01:55:25.184000000
NUMBER_OF_FRAMES : 216412
NUMBER_OF_BYTES : 387810304
_STATISTICS_WRITING_APP : mkvmerge v23.0.0 (''The Bride Said No'') 64-bit
_STATISTICS_WRITING_DATE_UTC : 2020-03-21 08:04:54
_STATISTICS_TAGS : BPS DURATION NUMBER_OF_FRAMES NUMBER_OF_BYTES









   Похожие торренты   Торрент   Размер 
В этой теме нет новых непрочитанных сообщений. Бессмертный / L'immortale (Марко Д Амор) [2019, криминал, драма, BDRip] MVO

137 | 3

1.46 ГБ

В этой теме нет новых непрочитанных сообщений. Золотые мужчины / Gli uomini d'oro (Винченцо Альфьери) [2019, драма, криминал, HDRip] MVO

25 | 5

1.45 ГБ

В этой теме нет новых непрочитанных сообщений. Не отпускай / Don't Let Go (Джейкоб Аарон Эстес) [2019, триллер, фантастика, детектив, криминал, BDRip] MVO

217 | 13

1.45 ГБ

В этой теме нет новых непрочитанных сообщений. Вдова / Widow's Walk (Александра Бойд) [2019, драма, ужасы, WEB-DLRip] MVO

7 | 0

1.37 ГБ

В этой теме нет новых непрочитанных сообщений. Вдова / Widow's Walk (Александра Бойд) [2019, драма, ужасы, WEB-DLRip] MVO

10 | 0

1.45 ГБ

В этой теме нет новых непрочитанных сообщений. Не отпускай / Don't Let Go (Джейкоб Аарон Эстес) [2019, криминал, фантастика, триллер, детектив, WEB-DLRip] MVO

36 | 0

1.37 ГБ

В этой теме нет новых непрочитанных сообщений. Paranormal Files 4: Hook Man's Legend Collector's Edition [P] [ENG] [2019, я ищу, квест]

7 | 1

1.37 ГБ




Вы не можете начинать темы
Вы не можете отвечать на сообщения
Вы не можете редактировать свои сообщения
Вы не можете удалять свои сообщения
Вы не можете добавлять вложения

Перейти:  
Контактная информация: dv-phone[пёсик]yandex.ru
 Вход
ppkBB3cker v.2 © 2008-2014 @ PPK
[ Time : 0.033s | 16 Queries | GZIP : Off ]

cron