img image001 image001 image001 image001 image001 image001 image001 image001 image001 image001 image001 image001 image001 image001 image001

Planets Sun Sun Sun

COVID-19 - Последняя информация о коронавирусе на сайте Минздрава


Статистика раздачи
Автор: Снежана | Размер: 2.19 ГБ | Добавлен: 21 май 2020
Раздают: 38    Качают: 2


Скачать торрент
Скачать торрент
Описание торрента

СообщениеДобавлено: 21 май 2020 

Опасная близость: Сражение при Лонгтане / Danger Close: The Battle of Long Tan

Перевод: Профессиональный (многоголосый, закадровый) HDRezka Studio, cубтитры: отсутствуют
Формат: HDRip-AVC, MKV, H.264, AC3
Страна: Австралия
Режиссер: Крив Стендерс
Жанр: история, военный, драма, боевик
Продолжительность: 01:58:28
Год выпуска: 2019
В ролях: Трэвис Фиммел, Тоби Блом, Александр Инглэнд, Аарон Гленнэйн, Ули Латукефу, Ричард Те Аре, Люк Брейси, Шон МакКарти, Моджиан Ариа, Райан Хэнс

Описание: События картины происходят летом 1966 года во Вьетнаме. Рота в основном неопытных австралийских и новозеландских солдат встречается в битве при Лонгтане с превосходящими силами Вьетконга. В один из дней, австралийские и новозеландские ребята натыкаются на вражеский отряд, превосходящий их количество в множество раз. С этого момента начинается жёсткая борьба за выживание.



Видео: 1024x432 (2.40:1), 23.976 fps, AVC MPEG4 (x264), , ~2193 kbps avg, 0.207 bit/pixel
Аудио: 48 kHz, AC3 Dolby Digital, 3/2 (L,C,R,l,r) + LFE ch, ~448 kbps
General
Unique ID : 106433687625974296030496734900979422778 (0x501261F2AA8B052421692C927522D63A)
Complete name : C:\Users\123\Desktop\Danger Close The Battle of Long Tan (2019)_[tfile.ru].mkv
Format : Matroska
Format version : Version 4 / Version 2
File size : 2.19 GiB
Duration : 1h 58mn
Overall bit rate mode : Constant
Overall bit rate : 2 641 Kbps
Encoded date : UTC 2020-05-20 06:33:47
Writing application : Lavf56.36.100
Writing library : Lavf56.36.100
ENCODING_INFO : MATROSKA,WEBM > MKV / H264 > X264 ABR 3500kbps Произвольный / AC3 > AC3 CBR 448kbps
COPYRIGHT : «CVATVT»

Video
ID : 2
Format : AVC
Format/Info : Advanced Video Codec
Format profile :
Format settings, CABAC : Yes
Format settings, ReFrames : 2 frames
Format settings, GOP : M=1, N=25
Codec ID : V_MPEG4/ISO/AVC
Duration : 1h 58mn
Bit rate mode : Constant
Bit rate : 2 193 Kbps
Width : 1 024 pixels
Height : 432 pixels
Display aspect ratio : 2.40:1
Frame rate mode : Constant
Frame rate : 23.976 fps
Color space : YUV
Chroma subsampling : 4:2:0
Bit depth : 8 bits
Scan type : Progressive
Bits/(Pixel*Frame) : 0.207
Stream size : 1.77 GiB (81%)
Title : Australia (Deeper Water, Hoosegow Productions, Ingenious Media)
Default : Yes
Forced : No
DURATION : 01:58:28.273000000

Audio
ID : 1
Format : AC-3
Format/Info : Audio Coding 3
Mode extension : CM (complete main)
Format settings, Endianness : Big
Codec ID : A_AC3
Duration : 1h 58mn
Bit rate mode : Constant
Bit rate : 448 Kbps
Channel(s) : 6 channels
Channel positions : Front: L C R, Side: L R, LFE
Sampling rate : 48.0 KHz
Bit depth : 32 bits
Compression mode : Lossy
Stream size : 380 MiB (17%)
Title : MVO (HDRezka Studio)
Language : Russian
Default : Yes
Forced : No
DURATION : 01:58:28.320000000










   Похожие торренты   Торрент   Размер 
В этой теме нет новых непрочитанных сообщений. Опасная близость: Сражение при Лонгтане / Danger Close: The Battle of Long Tan (Крив Стендерс) [2019, история, военный, драма, боевик, BDRip] MVO

15 | 0

1.46 ГБ

В этой теме нет новых непрочитанных сообщений. Опасная близость: Сражение при Лонгтане / Danger Close: The Battle of Long Tan (Крив Стендерс) [2019, боевик, военный, драма, WEB-DLRip] MVO

11 | 0

2.05 ГБ

В этой теме нет новых непрочитанных сообщений. Битва при Сарагахри / Kesari (Анураг Сингх) [2019, боевик, драма, военный, история , WEBDLRip] VO

2 | 0

2.18 ГБ

В этой теме нет новых непрочитанных сообщений. Мидуэй / Midway (Роланд Эммерих) [2019, история, драма, военный, боевик, TeleSynch] MVO

4 | 0

2.08 ГБ

В этой теме нет новых непрочитанных сообщений. Пятнадцать минут войны / L'Intervention (Фред Гривуа) [2019, история, драма, боевик, военный, BDRip] MVO

87 | 0

1.42 ГБ

В этой теме нет новых непрочитанных сообщений. Пятнадцать минут войны / L'Intervention (Фред Гривуа) [2019, история, драма, боевик, военный, WEBDLRip] MVO

11 | 0

1.37 ГБ

В этой теме нет новых непрочитанных сообщений. Братство (Павел Лунгин) [2019, драма, боевик, история, военный, триллер, HDRip]

12 | 0

2.18 ГБ




Вы не можете начинать темы
Вы не можете отвечать на сообщения
Вы не можете редактировать свои сообщения
Вы не можете удалять свои сообщения
Вы не можете добавлять вложения

Перейти:  
Контактная информация: rstracker[пёсик]yandex.ru
 Вход
ppkBB3cker v.2 © 2008-2014 @ PPK
[ Time : 0.026s | 16 Queries | GZIP : Off ]

cron