img image001 image001 image001 image001 image001 image001 image001 image001 image001 image001 image001 image001 image001 image001 image001

Planets Sun Sun Sun

COVID-19 - Последняя информация о коронавирусе на сайте Минздрава


Статистика раздачи
Автор: Снежана | Размер: 1.46 ГБ | Добавлен: 21 май 2020
Раздают: 2    Качают: 0
Скачать торрент
Скачать торрент
Описание торрента

СообщениеДобавлено: 21 май 2020 

Морские паразиты / Sea Fever

Перевод: Любительский (двухголосый)+Авторский, cубтитры: отсутствуют
Формат: HDRip-AVC, MKV, H.264, AC3
Страна: Ирландия, США, Великобритания, Швеция, Бельгия
Режиссер: Ниса Хардиман
Жанр: ужасы, фантастика
Продолжительность: 01:34:13
Год выпуска: 2019
В ролях: Гермиона Корфилд, Конни Нильсен, Дюгрей Скотт, Олуэн Фуэре, Джек Хикки, Ардалан Эсмаили, Даг Малмберг, Эли Буаказе

Описание: Ирландия. Студентка Шиван — настоящий интроверт. Девушка изучает морскую биологию, и ей интереснее смотреть в микроскоп, чем общаться с сокурсниками. Она отправляется проходить практику на небольшом рыболовецком судне, что сулит новые впечатления и богатый материал для научных исследований, хотя команда и не в восторге от пассажирки, так как её рыжие волосы являются плохой приметой. Но тем не менее, капитан решает рискнуть и заплывает в запретную зону, где корабль внезапно «застревает». Выясняется, что к бортам судна присосались неизвестные науке морские существа, и они явно способны менять структуру и растворять всё, чего касаются.



Видео: 1024x432 (2.40:1), 23.976 fps, AVC MPEG4 (x264), , ~1643 kbps avg, 0.155 bit/pixel
Аудио #1: Русский:48 kHz, AC3 Dolby Digital, 2 (L,R) ch, ~192.00 kbps avg [Любительский (двухголосый)] LakeFilms-(Ненормативная лексика)
Аудио #2: Русский:48 kHz, AC3 Dolby Digital, 3/2 (L,C,R,l,r) + LFE ch, ~384.00 kbps avg [Авторский]- zamez
General
Unique ID : 87198772321826416699194750144819780964 (0x4199DF677CC05EE1B99013FAC5FC5D64)
Complete name : C:\Users\123\Desktop\Morskie.Parazity.2019.HDRip-AVC_[tfile.ru}.mkv
Format : Matroska
Format version : Version 4 / Version 2
File size : 1.46 GiB
Duration : 1h 34mn
Overall bit rate mode : Constant
Overall bit rate : 2 221 Kbps
Movie name : Sea Fever.2019.BDRip 720p.grab777 & ExKinoRay
Encoded date : UTC 2020-05-20 09:56:58
Writing application : Lavf56.36.100
Writing library : Lavf56.36.100

Video
ID : 3
Format : AVC
Format/Info : Advanced Video Codec
Format profile :
Format settings, CABAC : Yes
Format settings, ReFrames : 2 frames
Format settings, GOP : M=1, N=25
Codec ID : V_MPEG4/ISO/AVC
Duration : 1h 34mn
Bit rate mode : Constant
Bit rate : 1 643 Kbps
Width : 1 024 pixels
Height : 432 pixels
Display aspect ratio : 2.40:1
Frame rate mode : Constant
Frame rate : 23.976 fps
Color space : YUV
Chroma subsampling : 4:2:0
Bit depth : 8 bits
Scan type : Progressive
Bits/(Pixel*Frame) : 0.155
Stream size : 1.05 GiB (72%)
Title : CADAVER
Default : Yes
Forced : No
DURATION : 01:34:13.648000000
NUMBER_OF_FRAMES : 135552
NUMBER_OF_BYTES : 2969939458
_STATISTICS_WRITING_APP : mkvmerge v7.4.0 (''Circles'') 64bit built on Dec 12 2014 12:19:56
_STATISTICS_WRITING_DATE_UTC : 2020-05-20 09:56:58
_STATISTICS_TAGS : BPS DURATION NUMBER_OF_FRAMES NUMBER_OF_BYTES

Audio #1
ID : 1
Format : AC-3
Format/Info : Audio Coding 3
Mode extension : CM (complete main)
Format settings, Endianness : Big
Codec ID : A_AC3
Duration : 1h 34mn
Bit rate mode : Constant
Bit rate : 192 Kbps
Channel(s) : 2 channels
Channel positions : Front: L R
Sampling rate : 48.0 KHz
Bit depth : 32 bits
Compression mode : Lossy
Stream size : 129 MiB (9%)
Default : Yes
Forced : No
DURATION : 01:34:13.664000000
NUMBER_OF_FRAMES : 176677
NUMBER_OF_BYTES : 135687936
_STATISTICS_WRITING_APP : mkvmerge v7.4.0 (''Circles'') 64bit built on Dec 12 2014 12:19:56
_STATISTICS_WRITING_DATE_UTC : 2020-05-20 09:56:58
_STATISTICS_TAGS : BPS DURATION NUMBER_OF_FRAMES NUMBER_OF_BYTES

Audio #2
ID : 2
Format : AC-3
Format/Info : Audio Coding 3
Mode extension : CM (complete main)
Format settings, Endianness : Big
Codec ID : A_AC3
Duration : 1h 34mn
Bit rate mode : Constant
Bit rate : 384 Kbps
Channel(s) : 6 channels
Channel positions : Front: L C R, Side: L R, LFE
Sampling rate : 48.0 KHz
Bit depth : 32 bits
Compression mode : Lossy
Stream size : 259 MiB (17%)
Default : Yes
Forced : No
DURATION : 01:34:13.664000000
NUMBER_OF_FRAMES : 176677
NUMBER_OF_BYTES : 271375872
_STATISTICS_WRITING_APP : mkvmerge v7.4.0 (''Circles'') 64bit built on Dec 12 2014 12:19:56
_STATISTICS_WRITING_DATE_UTC : 2020-05-20 09:56:58
_STATISTICS_TAGS : BPS DURATION NUMBER_OF_FRAMES NUMBER_OF_BYTES









   Похожие торренты   Торрент   Размер 
В этой теме нет новых непрочитанных сообщений. Морские паразиты / Sea Fever (Ниса Хардиман) [2019, фантастика, ужасы, WEB-DLRip] DVO

13 | 0

1.46 ГБ

В этой теме нет новых непрочитанных сообщений. Морские паразиты / Sea Fever (Ниса Хардиман) [2019, фантастика, ужасы, WEB-DLRip] MVO

45 | 3

1.37 ГБ

В этой теме нет новых непрочитанных сообщений. Битва проклятых / Battle of the Damned (Кристофер Хаттон) [2013, ужасы, фантастика, боевик, триллер, приключения, HDRip-AVC] DVO / Фантастика

0 | 3

1.46 ГБ

В этой теме нет новых непрочитанных сообщений. Зубастики атакуют! / Critters Attack! (Бобби Миллер) [2019, фантастика, комедия, ужасы, DVDRip-AVC] AVO

9 | 0

1.54 ГБ

В этой теме нет новых непрочитанных сообщений. Живое / Life (Даниэль Эспиноса) [2017, фантастика, ужасы, триллер, BDRip-AVC] 2xDUB + AVO + ENG / Фантастика

4 | 0

2.31 ГБ

В этой теме нет новых непрочитанных сообщений. Ассимиляция / Assimilate (Джон Марловски) [2019, ужасы, фантастика, триллер, BDRip] AVO

9 | 0

1.46 ГБ

В этой теме нет новых непрочитанных сообщений. 8 короткометражек “Фантастика” / 8 short films “Fantastic” (Йен Хьюберт, Калеб Леховски, Жорж Мельес, …) [1902-2017, короткометражка, фантастика, мультфильм, фэнтези, ... WEBRip-AVC] DUB+VO+DVO+MVO+AVO

24 | 1

2.05 ГБ




Вы не можете начинать темы
Вы не можете отвечать на сообщения
Вы не можете редактировать свои сообщения
Вы не можете удалять свои сообщения
Вы не можете добавлять вложения

Перейти:  
Контактная информация: rstracker[пёсик]yandex.ru
 Вход
ppkBB3cker v.2 © 2008-2014 @ PPK
[ Time : 0.327s | 17 Queries | GZIP : Off ]

cron