img image001 image001 image001 image001 image001 image001 image001 image001 image001 image001 image001 image001 image001 image001 image001

Planets Sun Sun Sun
Статистика раздачи
Автор: PriZraK | Размер: 2.45 ГБ | Добавлен: 22 мар 2022
Раздают: 0    Качают: 0
Скачать торрент
Скачать торрент
Описание торрента

СообщениеДобавлено: 22 мар 2022 

Название: Последний шанс Харви
Оригинальное название: Last Chance Harvey
Страна: США
Жанр: драма, мелодрама
Год выпуска: 2008
Продолжительность: 01:32:40
Режиссер: Джоэл Хопкинс
В ролях: Дастин Хоффман, Эмма Томпсон, Айлин Аткинз, Кэти Бэйкер, Лайан Бэлабэн, Джеймс Бролин, Ричард Шифф, Бронах Галлахер, Джереми Шеффилд, Дэниэл Лапейн, Патрик Балади, Адам Джеймс, Майкл Ландес, Кейт Харпер, Джэми Сивз, Анджела Гриффин, Алекс Эйвери, Тим Эхерн, Шарлотта Лукас, Надя Кэмерон-Блэйки, Ридиан Джонс, Крис Уилсон, Эллиот Ливи, Масато Камо, Кас Грэхэм, Марк Кемпнер

О фильме: Харви одинок и уже немолод. Он живёт в Нью-Йорке, зарабатывая на жизнь сочинением рекламных джинглов. Но однажды его размеренной и скучной жизни приходит конец. Прилетев в Лондон на свадьбу своей дочери, Харви неожиданно узнаёт, что на торжественной церемонии в качестве отца невесты выступит не он, а её отчим. Расстроенный и обиженный, Харви опаздывает на свой самолёт в Нью-Йорк и узнаёт, что уволен с работы. В баре аэропорта он встречает обаятельную женщину по имени Кейт, с которой его связывает очень многое, несмотря на то, что они даже не знакомы. Это последний шанс Харви...



Качество: BDRip-AVC
Формат: MKV
Видео: MPEG-4 AVC, 2688 Кбит/с, 1024x436, 23.976 кадр/с
Аудио 1: русский, AC3, 192 kbps, 2 ch, 48 kHz [закадровый многоголосый]
Аудио 2: русский, AC3, 448 kbps, 6 ch, 48 kHz [авторский, Юрий Сербин]
Аудио 3: английский, AC3, 448 kbps, 6 ch, 48 kHz [оригинал]
Субтитры 1: русские (SRT)
Главы/чаптеры
Общее
Уникальный идентификатор : 194922729746708244753632956180890170151 (0x92A4C09094066517A72A1C3421FCB327)
Полное имя : D:VideoПоследний шанс Харви.2008.BDRip-AVC msltel.mkv
Формат : Matroska
Версия формата : Version 4
Размер файла : 2,45 Гбайт
Продолжительность : 1 ч. 32 м.
Общий поток : 3 778 Кбит/сек
Название фильма : Последний шанс Харви.2008.BDRip msltel
Дата кодирования : UTC 2020-11-29 15:20:44
Программа кодирования : mkvmerge v8.2.0 ('World of Adventure') 64bit
Библиотека кодирования : libebml v1.3.1 + libmatroska v1.4.2

Видео
Идентификатор : 1
Формат : AVC
Формат/Информация : Advanced Video Codec
Профиль формата : High@L4.1
Настройки формата : CABAC / 16 Ref Frames
Параметр CABAC формата : Да
Параметр RefFrames формата : 16 кадров
Идентификатор кодека : V_MPEG4/ISO/AVC
Продолжительность : 1 ч. 32 м.
Битрейт : 2 688 Кбит/сек
Ширина : 1 024 пикселя
Высота : 436 пикселей
Соотношение сторон : 2,35:1
Режим частоты кадров : Постоянный
Частота кадров : 23,976 (24000/1001) кадра/сек
Цветовое пространство : YUV
Субдискретизация насыщенности : 4:2:0
Битовая глубина : 8 бит
Тип развёртки : Прогрессивная
Бит/(Пиксели*Кадры) : 0.251
Размер потока : 1,74 Гбайт (71%)
Библиотека кодирования : x264 core 161 r3018 db0d417
Настройки программы : cabac=1 / ref=16 / deblock=1:-2:-2 / analyse=0x3:0x113 / me=umh / subme=11 / psy=1 / psy_rd=1.00:0.00 / mixed_ref=1 / me_range=32 / chroma_me=1 / trellis=2 / 8x8dct=1 / cqm=0 / deadzone=21,11 / fast_pskip=0 / chroma_qp_offset=-2 / threads=6 / lookahead_threads=1 / sliced_threads=0 / nr=0 / decimate=0 / interlaced=0 / bluray_compat=0 / constrained_intra=0 / bframes=12 / b_pyramid=2 / b_adapt=2 / b_bias=0 / direct=1 / weightb=1 / open_gop=0 / weightp=2 / keyint=230 / keyint_min=23 / scenecut=40 / intra_refresh=0 / rc_lookahead=40 / rc=crf / mbtree=0 / crf=17.5 / qcomp=0.60 / qpmin=0 / qpmax=69 / qpstep=4 / vbv_maxrate=62500 / vbv_bufsize=78125 / crf_max=0.0 / nal_hrd=none / filler=0 / ip_ratio=1.40 / pb_ratio=1.30 / aq=3:1.00
Язык : English
Default : Да
Forced : Нет

Аудио #1
Идентификатор : 2
Формат : AC-3
Формат/Информация : Audio Coding 3
Коммерческое название : Dolby Digital
Идентификатор кодека : A_AC3
Продолжительность : 1 ч. 32 м.
Вид битрейта : Постоянный
Битрейт : 192 Кбит/сек
Каналы : 2 канала
Channel layout : L R
Частота : 48,0 КГц
Частота кадров : 31,250 кадров/сек (1536 SPF)
Метод сжатия : С потерями
Размер потока : 127 Мбайт (5%)
Заголовок : MVO
Язык : Russian
Service kind : Complete Main
Default : Да
Forced : Нет

Аудио #2
Идентификатор : 3
Формат : AC-3
Формат/Информация : Audio Coding 3
Коммерческое название : Dolby Digital
Идентификатор кодека : A_AC3
Продолжительность : 1 ч. 32 м.
Вид битрейта : Постоянный
Битрейт : 448 Кбит/сек
Каналы : 6 каналов
Channel layout : L R C LFE Ls Rs
Частота : 48,0 КГц
Частота кадров : 31,250 кадров/сек (1536 SPF)
Метод сжатия : С потерями
Размер потока : 297 Мбайт (12%)
Заголовок : Юрий Сербин
Язык : Russian
Service kind : Complete Main
Default : Нет
Forced : Нет

Аудио #3
Идентификатор : 4
Формат : AC-3
Формат/Информация : Audio Coding 3
Коммерческое название : Dolby Digital
Идентификатор кодека : A_AC3
Продолжительность : 1 ч. 32 м.
Вид битрейта : Постоянный
Битрейт : 448 Кбит/сек
Каналы : 6 каналов
Channel layout : L R C LFE Ls Rs
Частота : 48,0 КГц
Частота кадров : 31,250 кадров/сек (1536 SPF)
Метод сжатия : С потерями
Размер потока : 297 Мбайт (12%)
Заголовок : оригинал
Язык : English
Service kind : Complete Main
Default : Нет
Forced : Нет

Текст
Идентификатор : 5
Формат : UTF-8
Идентификатор кодека : S_TEXT/UTF8
Идентификатор кодека/Информация : UTF-8 Plain Text
Продолжительность : 1 ч. 29 м.
Битрейт : 68 бит/сек
Count of elements : 985
Размер потока : 44,5 Кбайт (0%)
Заголовок : русские
Язык : Russian
Default : Нет
Forced : Нет

Меню
00:00:00.000 : :Chapter 1
00:06:43.152 : :Chapter 2
00:14:17.648 : :Chapter 3
00:18:18.263 : :Chapter 4
00:22:37.647 : :Chapter 5
00:30:42.507 : :Chapter 6
00:33:48.651 : :Chapter 7
00:40:55.327 : :Chapter 8
00:47:01.819 : :Chapter 9
00:55:06.386 : :Chapter 10
01:00:59.947 : :Chapter 11
01:07:51.901 : :Chapter 12
01:12:40.856 : :Chapter 13
01:15:53.882 : :Chapter 14
01:20:46.007 : :Chapter 15
01:27:18.399 : :Chapter 16
01:32:39.095 : :Chapter 17

Исходник vs Рип




   Похожие торренты   Торрент   Размер 
В этой теме нет новых непрочитанных сообщений. Последний шанс Харви / Last Chance Harvey (2008) BDRip 720p от msltel | P, A

0 | 1

4.4 ГБ

В этой теме нет новых непрочитанных сообщений. Девушки Харви / The Harvey girls (1946) BDRip-AVC от msltel | P

0 | 0

2.66 ГБ

В этой теме нет новых непрочитанных сообщений. Эдна и Харви: Новые глаза Харви / Edna and Harvey: Harvey's New Eyes (2012) PC | Лицензия

31 | 1

803.83 МБ

В этой теме нет новых непрочитанных сообщений. Девушки Харви / The Harvey girls (1946) BDRip 720p от msltel | P

0 | 0

7.97 ГБ

В этой теме нет новых непрочитанных сообщений. Девушки Харви / The Harvey Girls (1946) BDRip 1080p | P

1 | 0

8.47 ГБ

В этой теме нет новых непрочитанных сообщений. Последний косяк / Den siste revejakta (2008) BDRip-AVC от msltel | L1

0 | 0

2.14 ГБ

В этой теме нет новых непрочитанных сообщений. Рождественскй шанс / A Chance for Christmas (2021) WEB-DLRip-AVC | AlphaProject

0 | 0

1.73 ГБ




Вы не можете начинать темы
Вы не можете отвечать на сообщения
Вы не можете редактировать свои сообщения
Вы не можете удалять свои сообщения
Вы не можете добавлять вложения

Перейти:  
Контактная информация: rstracker[пёсик]yandex.ru
 Вход
ppkBB3cker v.2 © 2008-2014 @ PPK
[ Time : 0.034s | 19 Queries | GZIP : Off ]

cron