img image001 image001 image001 image001 image001 image001 image001 image001 image001 image001 image001 image001 image001 image001 image001

Planets Sun Sun Sun
Статистика раздачи
Автор: PriZraK | Размер: 5.59 ГБ | Добавлен: 22 мар 2022
Раздают: 0    Качают: 0
Скачать торрент
Скачать торрент
Описание торрента

СообщениеДобавлено: 22 мар 2022 

Информация о фильме
Название: Истории квартала 3 / Истории из морга 3
Оригинальное название: Tales from the Hood 3
Год выхода: 2020
Жанр: Ужасы
Режиссер: Расти Кандифф, Дэрин Скотт
В ролях: Тони Тодд, Линн Уитфилд, Эсе Атауо, Купер Хукаби, Джейм М. Каллика, Лондон Браун, Саванна Бэсли, Донни Лукас, Наташа Барнетт, Черисса Ричардс



О фильме: Четыре леденящих душу коротких историй, рассказанных шестилетней девочкой.

Страна: США
Студия: Universal 1440 Entertainment
Продолжительность: 01:42:14
Перевод: Дублированный | iTunes

Качество: BDRip 720p
Видео: MPEG-4 AVC, 1280x720, 6801 Kbit/s, 23.976 fps
Аудио #01: 48 kHz, AC3, 5.1, 384 Kbps | iTunes | RUS |
Аудио #02: 48 kHz, AC3, 5.1, 640 Kbps | Оригинал | ENG |
Субтитры: Английские



General
Unique ID : 933388183000244339979574658236943308 (0xB3C39726C3E64C9258C479E11C0BCC)
Complete name : E:VideoFirstTales.from.the.Hood.3.2020.BDRip.720.seleZen.mkv
Format : Matroska
Format version : Version 4
File size : 5.59 GiB
Duration : 1 h 42 min
Overall bit rate : 7 827 kb/s
Movie name : Tales from the Hood 3 2020 from seleZen
Encoded date : UTC 2021-01-05 12:44:09
Writing application : mkvmerge v40.0.0 ('Old Town Road + Pony') 64-bit
Writing library : libebml v1.3.9 + libmatroska v1.5.2

Video
ID : 1
Format : AVC
Format/Info : Advanced Video Codec
Format profile : High@L4.1
Format settings : CABAC / 9 Ref Frames
Format settings, CABAC : Yes
Format settings, Reference : 9 frames
Codec ID : V_MPEG4/ISO/AVC
Duration : 1 h 42 min
Bit rate : 6 801 kb/s
Width : 1 280 pixels
Height : 720 pixels
Display aspect ratio : 16:9
Frame rate mode : Constant
Frame rate : 23.976 (24000/1001) FPS
Color space : YUV
Chroma subsampling : 4:2:0
Bit depth : 8 bits
Scan type : Progressive
Bits/(Pixel*Frame) : 0.308
Stream size : 4.86 GiB (87%)
Title : HANDJOB
Writing library : x264 core 157 r2935 545de2f
Encoding settings : cabac=1 / ref=9 / deblock=1:-3:-3 / analyse=0x3:0x133 / me=umh / subme=10 / psy=1 / psy_rd=1.00:0.00 / mixed_ref=1 / me_range=32 / chroma_me=1 / trellis=2 / 8x8dct=1 / cqm=0 / deadzone=21,11 / fast_pskip=0 / chroma_qp_offset=-2 / threads=22 / lookahead_threads=5 / sliced_threads=0 / nr=0 / decimate=0 / interlaced=0 / bluray_compat=0 / constrained_intra=0 / bframes=16 / b_pyramid=2 / b_adapt=2 / b_bias=0 / direct=3 / weightb=1 / open_gop=0 / weightp=2 / keyint=240 / keyint_min=24 / scenecut=40 / intra_refresh=0 / rc_lookahead=60 / rc=crf / mbtree=0 / crf=14.2 / qcomp=0.60 / qpmin=0 / qpmax=69 / qpstep=4 / vbv_maxrate=62500 / vbv_bufsize=78125 / crf_max=0.0 / nal_hrd=none / filler=0 / ip_ratio=1.40 / pb_ratio=1.30 / aq=2:1.00
Language : English
Default : Yes
Forced : No
Color range : Limited
Color primaries : BT.709
Transfer characteristics : BT.709
Matrix coefficients : BT.709

Audio #1
ID : 2
Format : AC-3
Format/Info : Audio Coding 3
Commercial name : Dolby Digital
Codec ID : A_AC3
Duration : 1 h 42 min
Bit rate mode : Constant
Bit rate : 384 kb/s
Channel(s) : 6 channels
Channel layout : L R C LFE Ls Rs
Sampling rate : 48.0 kHz
Frame rate : 31.250 FPS (1536 SPF)
Compression mode : Lossy
Stream size : 281 MiB (5%)
Title : iTunes
Language : Russian
Service kind : Complete Main
Default : Yes
Forced : Yes

Audio #2
ID : 3
Format : AC-3
Format/Info : Audio Coding 3
Commercial name : Dolby Digital
Codec ID : A_AC3
Duration : 1 h 42 min
Bit rate mode : Constant
Bit rate : 640 kb/s
Channel(s) : 6 channels
Channel layout : L R C LFE Ls Rs
Sampling rate : 48.0 kHz
Frame rate : 31.250 FPS (1536 SPF)
Compression mode : Lossy
Stream size : 468 MiB (8%)
Title : Original
Language : English
Service kind : Complete Main
Default : No
Forced : No

Text
ID : 4
Format : UTF-8
Codec ID : S_TEXT/UTF8
Codec ID/Info : UTF-8 Plain Text
Duration : 1 h 36 min
Bit rate : 54 b/s
Count of elements : 1379
Stream size : 38.7 KiB (0%)
Title : SDH
Language : English
Default : No
Forced : No

Menu
00:00:00.000 : en:Chapter 01
00:10:00.850 : en:Chapter 02
00:20:02.159 : en:Chapter 03
00:30:01.967 : en:Chapter 04
00:40:01.065 : en:Chapter 05
00:50:04.126 : en:Chapter 06
01:00:04.100 : en:Chapter 07
01:10:04.617 : en:Chapter 08
01:20:05.634 : en:Chapter 09
01:30:05.483 : en:Chapter 10
01:37:21.085 : en:Chapter 11


Релиз: Присоединяйся к:


   Похожие торренты   Торрент   Размер 
В этой теме нет новых непрочитанных сообщений. Истории квартала 3 / Истории из морга 3 / Tales from the Hood 3 (2020) BDRip 1080p от селезень | iTunes

0 | 0

9.27 ГБ

В этой теме нет новых непрочитанных сообщений. Истории квартала 3 / Истории из морга 3 / Tales from the Hood 3 (2020) BDRemux 1080p от селезень | iTunes

0 | 0

17.56 ГБ

В этой теме нет новых непрочитанных сообщений. Истории квартала 3 / Истории из морга 3 / Tales from the Hood 3 (2020) BDRip от MegaPeer | iTunes

0 | 0

1.42 ГБ

В этой теме нет новых непрочитанных сообщений. Истории квартала 3 / Истории из морга 3 / Tales from the Hood 3 (2020) BDRip от Twister & ExKinoRay | iTunes

0 | 0

1.42 ГБ

В этой теме нет новых непрочитанных сообщений. Истории квартала 3 / Истории из морга 3 / Tales from the Hood 3 (2020) HDRip-AVC от MediaBit | iTunes

0 | 1

745.47 МБ

В этой теме нет новых непрочитанных сообщений. Истории квартала / Tales from the Hood (1995) BDRip 1080p | A

0 | 1

7.84 ГБ

В этой теме нет новых непрочитанных сообщений. Истории из морга 2 / Tales from the Hood 2 (Дэрин Скотт, Расти Кандифф) [2018, ужасы, DVDRip] MVO / Мистика

6 | 1

1.37 ГБ




Вы не можете начинать темы
Вы не можете отвечать на сообщения
Вы не можете редактировать свои сообщения
Вы не можете удалять свои сообщения
Вы не можете добавлять вложения

Перейти:  
Контактная информация: rstracker[пёсик]yandex.ru
 Вход
ppkBB3cker v.2 © 2008-2014 @ PPK
[ Time : 0.019s | 17 Queries | GZIP : Off ]

cron