img image001 image001 image001 image001 image001 image001 image001 image001 image001 image001 image001 image001 image001 image001 image001

Planets Sun Sun Sun
Статистика раздачи
Автор: PriZraK | Размер: 3.7 ГБ | Добавлен: 22 мар 2022
Раздают: 0    Качают: 0
Скачать торрент
Скачать торрент
Описание торрента

СообщениеДобавлено: 22 мар 2022 

Название: Ущерб
Оригинальное название: Damage
Страна: США, Канада
Жанр: боевик, драма
Год выпуска: 2009
Продолжительность: 01:46:13
Режиссер: Джефф Кинг
В ролях: Стив Остин, Линда Бойд, Лора Вандервурт, Уолтон Гоггинс, Майкл Ханус, Адриан Холмс, Эрик Кинлисайд, Филлип Митчелл, Джорджи Монтези, Клифтон Маккейб Мюррэй, Джиллз Пэнтон

О фильме: История о человеке, который недавно освободился условно из тюрьмы и пытается встать на правильный путь. Но ему это не удается..., и он попадает в мир незаконных боев без правил...



Качество: BDRip-AVC
Формат: MKV
Видео: MPEG-4 AVC, 4148 Kбит/с, 1024x576, 23.976 кадр/с
Аудио 1: русский, AC3, 384 kbps, 6 ch, 48 kHz [закадровый многоголосый, Ren TV]
Аудио 2: английский, AC3, 448 kbps, 6 ch, 48 kHz [оригинал]
Главы/чаптеры
---[Information] [05.01.2021 4:39:11] x264 [info]: frame I:1473 Avg QP:16.87 size: 86521
---[Information] [05.01.2021 4:39:11] x264 [info]: frame P:32280 Avg QP:18.49 size: 41649
---[Information] [05.01.2021 4:39:11] x264 [info]: frame B:119055 Avg QP:20.20 size: 15396
---[Information] [05.01.2021 4:39:11] x264 [info]: consecutive B-frames: 2.1% 2.4% 7.8% 21.7% 19.9% 24.7% 6.2% 10.0% 4.1% 1.0% 0.2%
---[Information] [05.01.2021 4:39:11] x264 [info]: mb I I16..4: 3.5% 80.4% 16.1%
---[Information] [05.01.2021 4:39:11] x264 [info]: mb P I16..4: 0.6% 18.4% 1.7% P16..4: 31.9% 28.5% 14.9% 0.0% 0.0% skip: 4.1%
---[Information] [05.01.2021 4:39:11] x264 [info]: mb B I16..4: 0.0% 1.6% 0.2% B16..8: 42.1% 15.3% 5.0% direct: 7.7% skip:28.1% L0:45.3% L1:43.1% BI:11.6%
---[Information] [05.01.2021 4:39:11] x264 [info]: 8x8 transform intra:87.9% inter:59.9%
---[Information] [05.01.2021 4:39:11] x264 [info]: coded y,uvDC,uvAC intra: 96.1% 91.7% 78.8% inter: 38.9% 33.7% 17.4%
---[Information] [05.01.2021 4:39:11] x264 [info]: i16 v,h,dc,p: 26% 11% 8% 55%
---[Information] [05.01.2021 4:39:11] x264 [info]: i8 v,h,dc,ddl,ddr,vr,hd,vl,hu: 9% 8% 7% 10% 14% 14% 14% 12% 13%
---[Information] [05.01.2021 4:39:11] x264 [info]: i4 v,h,dc,ddl,ddr,vr,hd,vl,hu: 10% 7% 2% 10% 17% 15% 15% 12% 12%
---[Information] [05.01.2021 4:39:11] x264 [info]: i8c dc,h,v,p: 56% 15% 14% 15%
---[Information] [05.01.2021 4:39:11] x264 [info]: Weighted P-Frames: Y:2.3% UV:0.6%
---[Information] [05.01.2021 4:39:11] x264 [info]: ref P L0: 44.2% 11.1% 17.3% 6.1% 5.8% 3.5% 3.4% 1.6% 1.7% 1.2% 1.3% 0.9% 1.0% 0.8% 0.0% 0.0%
---[Information] [05.01.2021 4:39:11] x264 [info]: ref B L0: 72.6% 11.4% 5.4% 2.9% 2.2% 1.6% 1.2% 0.8% 0.6% 0.6% 0.5% 0.3% 0.1%
---[Information] [05.01.2021 4:39:11] x264 [info]: ref B L1: 94.8% 5.2%
---[Information] [05.01.2021 4:39:11] x264 [info]: kb/s:4148.37
---[Information] [05.01.2021 4:39:11] encoded 152808 frames, 7.74 fps, 4148.37 kb/s

Общее
Уникальный идентификатор : 214973110227974244496075239289656380694 (0xA1BA50A55265463E89B4878E855F0D16)
Полное имя : D:VideoУщерб.2009.BDRip-AVC msltel.mkv
Формат : Matroska
Версия формата : Version 4
Размер файла : 3,70 Гбайт
Продолжительность : 1 ч. 46 м.
Общий поток : 4 982 Кбит/сек
Название фильма : Ущерб.2009.BDRip msltel
Дата кодирования : UTC 2021-01-05 02:17:14
Программа кодирования : mkvmerge v8.2.0 ('World of Adventure') 64bit
Библиотека кодирования : libebml v1.3.1 + libmatroska v1.4.2

Видео
Идентификатор : 1
Формат : AVC
Формат/Информация : Advanced Video Codec
Профиль формата : High@L4.1
Настройки формата : CABAC / 14 Ref Frames
Параметр CABAC формата : Да
Параметр RefFrames формата : 14 кадров
Идентификатор кодека : V_MPEG4/ISO/AVC
Продолжительность : 1 ч. 46 м.
Битрейт : 4 148 Кбит/сек
Ширина : 1 024 пикселя
Высота : 576 пикселей
Соотношение сторон : 16:9
Режим частоты кадров : Постоянный
Частота кадров : 23,976 (24000/1001) кадра/сек
Цветовое пространство : YUV
Субдискретизация насыщенности : 4:2:0
Битовая глубина : 8 бит
Тип развёртки : Прогрессивная
Бит/(Пиксели*Кадры) : 0.293
Размер потока : 3,08 Гбайт (83%)
Библиотека кодирования : x264 core 161 r3018 db0d417
Настройки программы : cabac=1 / ref=14 / deblock=1:-2:-2 / analyse=0x3:0x113 / me=umh / subme=10 / psy=1 / psy_rd=1.00:0.00 / mixed_ref=1 / me_range=32 / chroma_me=1 / trellis=2 / 8x8dct=1 / cqm=0 / deadzone=21,11 / fast_pskip=0 / chroma_qp_offset=-2 / threads=12 / lookahead_threads=3 / sliced_threads=0 / nr=0 / decimate=0 / interlaced=0 / bluray_compat=0 / constrained_intra=0 / bframes=10 / b_pyramid=2 / b_adapt=2 / b_bias=0 / direct=1 / weightb=1 / open_gop=0 / weightp=2 / keyint=230 / keyint_min=23 / scenecut=40 / intra_refresh=0 / rc_lookahead=40 / rc=crf / mbtree=0 / crf=17.5 / qcomp=0.60 / qpmin=0 / qpmax=69 / qpstep=4 / vbv_maxrate=62500 / vbv_bufsize=78125 / crf_max=0.0 / nal_hrd=none / filler=0 / ip_ratio=1.40 / pb_ratio=1.30 / aq=2:1.00
Язык : English
Default : Да
Forced : Нет

Аудио #1
Идентификатор : 2
Формат : AC-3
Формат/Информация : Audio Coding 3
Коммерческое название : Dolby Digital
Идентификатор кодека : A_AC3
Продолжительность : 1 ч. 46 м.
Вид битрейта : Постоянный
Битрейт : 384 Кбит/сек
Каналы : 6 каналов
Channel layout : L R C LFE Ls Rs
Частота : 48,0 КГц
Частота кадров : 31,250 кадров/сек (1536 SPF)
Метод сжатия : С потерями
Размер потока : 292 Мбайт (8%)
Заголовок : MVO Ren TV
Язык : Russian
Service kind : Complete Main
Default : Да
Forced : Нет

Аудио #2
Идентификатор : 3
Формат : AC-3
Формат/Информация : Audio Coding 3
Коммерческое название : Dolby Digital
Идентификатор кодека : A_AC3
Продолжительность : 1 ч. 46 м.
Вид битрейта : Постоянный
Битрейт : 448 Кбит/сек
Каналы : 6 каналов
Channel layout : L R C LFE Ls Rs
Частота : 48,0 КГц
Частота кадров : 31,250 кадров/сек (1536 SPF)
Метод сжатия : С потерями
Размер потока : 340 Мбайт (9%)
Заголовок : оригинал
Язык : English
Service kind : Complete Main
Default : Нет
Forced : Нет

Меню
00:00:00.000 : en:Chapter 1
00:08:29.634 : en:Chapter 2
00:15:32.932 : en:Chapter 3
00:22:34.311 : en:Chapter 4
00:32:11.763 : en:Chapter 5
00:40:23.588 : en:Chapter 6
00:50:05.586 : en:Chapter 7
01:02:42.884 : en:Chapter 8
01:14:09.737 : en:Chapter 9
01:22:11.844 : en:Chapter 10
01:32:56.445 : en:Chapter 11
01:41:33.921 : en:Chapter 12

Исходник vs Рип




   Похожие торренты   Торрент   Размер 
В этой теме нет новых непрочитанных сообщений. Ущерб / Damage (2009) BDRip 720p от msltel | P

0 | 0

7.95 ГБ

В этой теме нет новых непрочитанных сообщений. Повреждение мозга / Brain Damage (1988) BDRip-AVC | L1

5 | 0

743.79 МБ

В этой теме нет новых непрочитанных сообщений. Информатор / The Informant! (2009) BDRip-AVC от msltel | P

0 | 0

2.8 ГБ

В этой теме нет новых непрочитанных сообщений. Звуки за стеной / Oto-na-ri (2009) BDRip-AVC от msltel | L2

0 | 0

4.37 ГБ

В этой теме нет новых непрочитанных сообщений. Господа Бронко / Gentlemen Broncos (2009) BDRip-AVC от msltel | P, P1, L1

0 | 0

2.74 ГБ

В этой теме нет новых непрочитанных сообщений. Пять чувств Эроса / Ogamdo (2009) BDRip-AVC от msltel | L1

0 | 0

2.71 ГБ

В этой теме нет новых непрочитанных сообщений. У Бога за межой / U Pana Boga za miedza (2009) BDRip-AVC от msltel | L1

0 | 0

2.91 ГБ




Вы не можете начинать темы
Вы не можете отвечать на сообщения
Вы не можете редактировать свои сообщения
Вы не можете удалять свои сообщения
Вы не можете добавлять вложения

Перейти:  
Контактная информация: rstracker[пёсик]yandex.ru
 Вход
ppkBB3cker v.2 © 2008-2014 @ PPK
[ Time : 0.016s | 17 Queries | GZIP : Off ]

cron