img image001 image001 image001 image001 image001 image001 image001 image001 image001 image001 image001 image001 image001 image001 image001

Planets Sun Sun Sun
Статистика раздачи
Автор: PriZraK | Размер: 7.4 ГБ | Добавлен: 22 мар 2022
Раздают: 11    Качают: 0
Скачать торрент
Скачать торрент
Описание торрента

СообщениеДобавлено: 22 мар 2022 

Год выхода: 2000
Страна: США
Студия: Dimension Films
Жанр: боевик, триллер, драма, криминал
Продолжительность: 01:44:16
Перевод: Профессиональный (дублированный), авторские (одноголосые закадровые)

Режиссер: Джон Франкенхаймер
В ролях: Бен Аффлек, Гэри Синиз, Шарлиз Терон, Деннис Фарина, Джеймс Фрейн, Донал Лог, Дэнни Трехо, Айзек Хейз, Гордон Тутусис, Дана Стаблфилд

Описание: Ловушки расставлены. Для дерзкого ограбления банде головорезов нужен некий Ник, знакомый с охранной системой процветающего казино. Вскоре он должен выйти из тюрьмы.
В качестве приманки на встречу ему посылают красавицу Эшли, которая вела с ним заочную романтическую переписку. Ничего не подозревающий друг Ника — Руди решает выдать себя за него, чтобы познакомиться с загадочной девушкой. И теперь эта азартная игра может стоить ему жизни…



Качество: BDRip-HEVC 1080p
Видео: HEVC/x.265, 1920x1072, ~8678 Kbps
Аудио 1: AC3, 6 ch, 384 Kbps - Русский, дублированный
Аудио 2: AC3, 6 ch, 448 Kbps - Русский, AVO (Живов)
Аудио 3: AC3, 2 ch, 192 Kbps - Украинкий, DVO (1+1)
Аудио 4: AC3, 6 ch, 448 Kbps - Английский
Субтитры: Русские, Украинские, Английские
x265 [info]: frame I: 1449, Avg QP:17.19 kb/s: 27370.33
x265 [info]: frame P: 31617, Avg QP:18.58 kb/s: 17658.54
x265 [info]: frame B: 116945, Avg QP:20.73 kb/s: 6017.97
x265 [info]: Weighted P-Frames: Y:8.1% UV:5.1%
x265 [info]: Weighted B-Frames: Y:5.5% UV:2.5%
x265 [info]: consecutive B-frames: 6.1% 2.7% 5.3% 42.2% 8.4% 33.8% 0.7% 0.4% 0.1% 0.1% 0.2%
General
Unique ID : 161085834460780643538078680859633410814 (0x793000D30E6425AF4D571F5D111A62FE)
Complete name : G:HEVC-CLUBReindeer Games (2000) BDRip 1080p [HEVC] 10bit (Theatrical Cut).mkv
Format : Matroska
Format version : Version 4
File size : 7.40 GiB
Duration : 1 h 44 min
Overall bit rate : 10.2 Mb/s
Movie name : hevc-club.ucoz.net
Encoded date : UTC 2021-01-13 18:32:29
Writing application : mkvmerge v47.0.0 ('Black Flag') 64-bit
Writing library : libebml v1.3.10 + libmatroska v1.5.2
Cover : Yes
Attachments : cover.jpg

Video
ID : 1
Format : HEVC
Format/Info : High Efficiency Video Coding
Format profile : Main 10@L4.1@High
Codec ID : V_MPEGH/ISO/HEVC
Duration : 1 h 44 min
Bit rate : 8 678 kb/s
Width : 1 920 pixels
Height : 1 072 pixels
Display aspect ratio : 16:9
Frame rate mode : Constant
Frame rate : 23.976 (23976/1000) FPS
Original frame rate : 23.976 (24000/1001) FPS
Color space : YUV
Chroma subsampling : 4:2:0
Bit depth : 10 bits
Bits/(Pixel*Frame) : 0.176
Stream size : 6.32 GiB (85%)
Writing library : x265 3.3+33-04275ae58030:[Windows][GCC 10.1.0][64 bit] 10bit
Encoding settings : cpuid=1111039 / frame-threads=3 / numa-pools=12 / wpp / no-pmode / no-pme / no-psnr / no-ssim / log-level=2 / input-csp=1 / input-res=1920x1072 / interlace=0 / total-frames=150011 / level-idc=41 / high-tier=1 / uhd-bd=0 / ref=5 / no-allow-non-conformance / no-repeat-headers / annexb / no-aud / no-hrd / info / hash=0 / no-temporal-layers / open-gop / min-keyint=23 / keyint=240 / gop-lookahead=0 / bframes=10 / b-adapt=2 / b-pyramid / bframe-bias=0 / rc-lookahead=60 / lookahead-slices=0 / scenecut=40 / hist-scenecut=0 / radl=0 / no-splice / no-intra-refresh / ctu=32 / min-cu-size=8 / rect / amp / max-tu-size=32 / tu-inter-depth=3 / tu-intra-depth=3 / limit-tu=0 / rdoq-level=2 / dynamic-rd=0.00 / no-ssim-rd / signhide / no-tskip / nr-intra=0 / nr-inter=0 / no-constrained-intra / strong-intra-smoothing / max-merge=5 / limit-refs=0 / no-limit-modes / me=3 / subme=7 / merange=57 / temporal-mvp / no-frame-dup / no-hme / weightp / weightb / no-analyze-src-pics / deblock=0:0 / no-sao / no-sao-non-deblock / rd=4 / selective-sao=0 / no-early-skip / rskip / no-fast-intra / no-tskip-fast / no-cu-lossless / b-intra / no-splitrd-skip / rdpenalty=0 / psy-rd=2.00 / psy-rdoq=1.00 / no-rd-refine / no-lossless / cbqpoffs=0 / crqpoffs=0 / rc=crf / crf=20.0 / qcomp=0.70 / qpstep=4 / stats-write=0 / stats-read=0 / vbv-maxrate=50000 / vbv-bufsize=50000 / vbv-init=0.9 / crf-max=0.0 / crf-min=0.0 / ipratio=1.40 / pbratio=1.30 / aq-mode=2 / aq-strength=1.00 / no-cutree / zone-count=0 / no-strict-cbr / qg-size=32 / no-rc-grain / qpmax=69 / qpmin=0 / no-const-vbv / sar=1 / overscan=0 / videoformat=5 / range=0 / colorprim=1 / transfer=1 / colormatrix=1 / chromaloc=0 / display-window=0 / cll=0,0 / min-luma=0 / max-luma=1023 / log2-max-poc-lsb=8 / vui-timing-info / vui-hrd-info / slices=1 / no-opt-qp-pps / no-opt-ref-list-length-pps / no-multi-pass-opt-rps / scenecut-bias=0.05 / hist-threshold=0.01 / no-opt-cu-delta-qp / no-aq-motion / no-hdr10 / no-hdr10-opt / no-dhdr10-opt / no-idr-recovery-sei / analysis-reuse-level=0 / analysis-save-reuse-level=0 / analysis-load-reuse-level=0 / scale-factor=0 / refine-intra=0 / refine-inter=0 / refine-mv=1 / refine-ctu-distortion=0 / no-limit-sao / ctu-info=0 / no-lowpass-dct / refine-analysis-type=0 / copy-pic=1 / max-ausize-factor=1.0 / no-dynamic-refine / no-single-sei / no-hevc-aq / no-svt / no-field / qp-adaptation-range=1.00 / no-scenecut-aware-qpconformance-window-offsets / right=0 / bottom=0 / decoder-max-rate=0
Default : Yes
Forced : No
Color range : Limited
Color primaries : BT.709
Transfer characteristics : BT.709
Matrix coefficients : BT.709

Audio #1
ID : 2
Format : AC-3
Format/Info : Audio Coding 3
Commercial name : Dolby Digital
Codec ID : A_AC3
Duration : 1 h 44 min
Bit rate mode : Constant
Bit rate : 384 kb/s
Channel(s) : 6 channels
Channel layout : L R C LFE Ls Rs
Sampling rate : 48.0 kHz
Frame rate : 31.250 FPS (1536 SPF)
Compression mode : Lossy
Stream size : 286 MiB (4%)
Title : DUB
Language : Russian
Service kind : Complete Main
Default : Yes
Forced : No

Audio #2
ID : 3
Format : AC-3
Format/Info : Audio Coding 3
Commercial name : Dolby Digital
Codec ID : A_AC3
Duration : 1 h 44 min
Bit rate mode : Constant
Bit rate : 448 kb/s
Channel(s) : 6 channels
Channel layout : L R C LFE Ls Rs
Sampling rate : 48.0 kHz
Frame rate : 31.250 FPS (1536 SPF)
Compression mode : Lossy
Stream size : 334 MiB (4%)
Title : AVO (Живов)
Language : Russian
Service kind : Complete Main
Default : No
Forced : No

Audio #3
ID : 4
Format : AC-3
Format/Info : Audio Coding 3
Commercial name : Dolby Digital
Codec ID : A_AC3
Duration : 1 h 44 min
Bit rate mode : Constant
Bit rate : 192 kb/s
Channel(s) : 2 channels
Channel layout : L R
Sampling rate : 48.0 kHz
Frame rate : 31.250 FPS (1536 SPF)
Compression mode : Lossy
Stream size : 143 MiB (2%)
Title : DVO (1+1)
Language : Ukrainian
Service kind : Complete Main
Default : No
Forced : No

Audio #4
ID : 5
Format : AC-3
Format/Info : Audio Coding 3
Commercial name : Dolby Digital
Codec ID : A_AC3
Duration : 1 h 44 min
Bit rate mode : Constant
Bit rate : 448 kb/s
Channel(s) : 6 channels
Channel layout : L R C LFE Ls Rs
Sampling rate : 48.0 kHz
Frame rate : 31.250 FPS (1536 SPF)
Compression mode : Lossy
Stream size : 334 MiB (4%)
Title : Original
Language : English
Service kind : Complete Main
Default : No
Forced : No

Text #1
ID : 6
Format : UTF-8
Codec ID : S_TEXT/UTF8
Codec ID/Info : UTF-8 Plain Text
Duration : 1 h 37 min
Bit rate : 84 b/s
Count of elements : 909
Stream size : 60.7 KiB (0%)
Language : Russian
Default : No
Forced : No

Text #2
ID : 7
Format : UTF-8
Codec ID : S_TEXT/UTF8
Codec ID/Info : UTF-8 Plain Text
Duration : 1 h 37 min
Bit rate : 84 b/s
Count of elements : 911
Stream size : 60.4 KiB (0%)
Language : Ukrainian
Default : No
Forced : No

Text #3
ID : 8
Format : UTF-8
Codec ID : S_TEXT/UTF8
Codec ID/Info : UTF-8 Plain Text
Duration : 1 h 36 min
Bit rate : 60 b/s
Count of elements : 1185
Stream size : 43.0 KiB (0%)
Language : English
Default : No
Forced : No

Menu
00:00:00.000 : en:Chapter 00
00:06:58.251 : en:Chapter 01
00:12:03.264 : en:Chapter 02
00:20:23.972 : en:Chapter 03
00:26:48.231 : en:Chapter 04
00:34:54.967 : en:Chapter 05
00:41:33.114 : en:Chapter 06
00:48:50.218 : en:Chapter 07
00:55:36.624 : en:Chapter 08
01:02:19.360 : en:Chapter 09
01:08:54.130 : en:Chapter 10
01:15:28.607 : en:Chapter 11
01:21:44.441 : en:Chapter 12
01:27:44.676 : en:Chapter 13
01:36:21.984 : en:Chapter 14
01:38:02.877 : en:Chapter 15


Релиз от: HANNIBAL

   Похожие торренты   Торрент   Размер 
В этой теме нет новых непрочитанных сообщений. Азартные игры / Reindeer Games (2000) BDRip-AVC | D | Theatrical Cut

2 | 0

2.41 ГБ

В этой теме нет новых непрочитанных сообщений. Азартные игры / Reindeer Games (Джон Франкенхаймер) [2000, боевик, триллер, криминал, BDRip] DUB / Боевики /Action

6 | 0

1.46 ГБ

В этой теме нет новых непрочитанных сообщений. Солт / Salt (2010) BDRip-HEVC 1080p от RIPS CLUB | D, A | Theatrical Cut

0 | 0

8.38 ГБ

В этой теме нет новых непрочитанных сообщений. Форсаж 6 / Furious 6 (2013) BDRip-HEVC 1080p от RIPS CLUB | D | Theatrical Cut

0 | 6

8.41 ГБ

В этой теме нет новых непрочитанных сообщений. Звонок 2 / The Ring Two (2005) BDRip-HEVC 1080p от RIPS CLUB | D, P2, A, L1 | Theatrical Cut

0 | 0

9.81 ГБ

В этой теме нет новых непрочитанных сообщений. Форсаж 9 / F9 (2021) BDRip-HEVC 1080p от RIPS CLUB | D | Theatrical Cut | iTunes

31 | 0

9.51 ГБ

В этой теме нет новых непрочитанных сообщений. Дюна / Dune (1984) UHD BDRip-HEVC 1080p от RIPS CLUB | HDR | P | Theatrical Cut

0 | 0

9.1 ГБ




Вы не можете начинать темы
Вы не можете отвечать на сообщения
Вы не можете редактировать свои сообщения
Вы не можете удалять свои сообщения
Вы не можете добавлять вложения

Перейти:  
Контактная информация: rstracker[пёсик]yandex.ru
 Вход
ppkBB3cker v.2 © 2008-2014 @ PPK
[ Time : 0.034s | 18 Queries | GZIP : Off ]

cron