img image001 image001 image001 image001 image001 image001 image001 image001 image001 image001 image001 image001 image001 image001 image001

Planets Sun Sun Sun
Статистика раздачи
Автор: PriZraK | Размер: 1 ГБ | Добавлен: 22 мар 2022
Раздают: 0    Качают: 0
Скачать торрент
Скачать торрент
Описание торрента

СообщениеДобавлено: 22 мар 2022 

Информация о фильме
Название: Кинг Конг
Оригинальное название: King Kong
Год выхода: 2005
Жанр: боевик, драма, мелодрама, приключения, фэнтези
Режиссер: Питер Джексон
В ролях: Наоми Уоттс, Эдриэн Броуди, Джек Блэк, Томас Кречман, Энди Серкис, Колин Хэнкс, Джейми Белл, Кайл Чандлер, Эван Парк, Лобо Чан

О фильме:
В 1930-м году съемочная группа под предводительством режиссера-неудачника Карла Дэнхэма отправляется на загадочный Остров Черепа неподалеку от Суматры, чтобы изучать легенды о гигантской горилле по кличке Конг. По прибытии на место они обнаруживают, что Кинг Конг и правда существует.
Горилла живет в самой чаще непроходимых джунглей, где помимо него, спрятанные от всего мира, обитают многие создания из доисторических времен. Исследователи оказываются между двух огней — с одной стороны Кинг Конг, а с другой — его враги динозавры…



Страна: Новая Зеландия, США, Германия
Студия: Universal Pictures, WingNut Films, Big Primate Pictures
Продолжительность: 03:20:10
Перевод: Дублированный + двухголосый закадровый на расширенные моменты

Файл
Кодек: MP4
Качество: HDRip 360p (исх. HDDVD/BDRip 720p | HDCLUB)
Видео: AVC, 640x272 (2.35:1) at 23.976 fps, 650 kbps
Аудио: AAC LC SBR (HE-AAC), 48.0 kHz, 2 ch, 64 kbps
Субтитры: Нет

ЦитатаКто-то писал:
Рип ESiR

ESIR использовал гибридный исходник: места и фрагменты расширенной версии взяты с BluRay, остальные фрагменты - с HDDVD.
За дубляж спасибо nuric85, моменты расширенной версией переведены двухголоской с дорожки Гланца
General
Complete name : King.Kong.2005.EC.HDRip.mp4
Format : MPEG-4
Format profile : Base Media
Codec ID : isom (isom/avc1)
File size : 1.00 GiB
Duration : 3 h 20 min
Overall bit rate mode : Variable
Overall bit rate : 717 kb/s
Encoded date : UTC 2021-01-26 10:00:20
Tagged date : UTC 2021-01-26 10:00:20

Video
ID : 1
Format : AVC
Format/Info : Advanced Video Codec
Format profile : High@L4.1
Format settings : CABAC / 16 Ref Frames
Format settings, CABAC : Yes
Format settings, Reference frames : 16 frames
Codec ID : avc1
Codec ID/Info : Advanced Video Coding
Duration : 3 h 20 min
Bit rate : 650 kb/s
Maximum bit rate : 4 053 kb/s
Width : 640 pixels
Height : 272 pixels
Display aspect ratio : 2.35:1
Frame rate mode : Constant
Frame rate : 23.976 (24000/1001) FPS
Color space : YUV
Chroma subsampling : 4:2:0
Bit depth : 8 bits
Scan type : Progressive
Bits/(Pixel*Frame) : 0.156
Stream size : 930 MiB (91%)
Writing library : x264 core 152 r2851 ba24899
Encoding settings : cabac=1 / ref=16 / deblock=1:-1:-1 / analyse=0x3:0x113 / me=umh / subme=10 / psy=1 / psy_rd=0.95:0.00 / mixed_ref=1 / me_range=32 / chroma_me=1 / trellis=2 / 8x8dct=1 / cqm=0 / deadzone=21,11 / fast_pskip=0 / chroma_qp_offset=-2 / threads=6 / lookahead_threads=1 / sliced_threads=0 / nr=100 / decimate=0 / interlaced=0 / bluray_compat=0 / constrained_intra=0 / bframes=12 / b_pyramid=2 / b_adapt=2 / b_bias=0 / direct=3 / weightb=1 / open_gop=0 / weightp=2 / keyint=240 / keyint_min=23 / scenecut=40 / intra_refresh=0 / rc=2pass / mbtree=0 / bitrate=650 / ratetol=1.0 / qcomp=0.75 / qpmin=0 / qpmax=69 / qpstep=4 / cplxblur=20.0 / qblur=0.5 / ip_ratio=1.20 / pb_ratio=1.30 / aq=1:0.95
Language : English
Encoded date : UTC 2021-01-26 10:00:20
Tagged date : UTC 2021-01-26 10:01:06
Codec configuration box : avcC

Audio
ID : 2
Format : AAC LC SBR
Format/Info : Advanced Audio Codec Low Complexity with Spectral Band Replication
Commercial name : HE-AAC
Format settings : Explicit
Codec ID : mp4a-40-2
Duration : 3 h 20 min
Bit rate mode : Variable
Bit rate : 64.0 kb/s
Maximum bit rate : 113 kb/s
Channel(s) : 2 channels
Channel layout : L R
Sampling rate : 48.0 kHz
Frame rate : 23.438 FPS (2048 SPF)
Compression mode : Lossy
Stream size : 91.6 MiB (9%)
Title : DUB + DVO
Language : Russian
Encoded date : UTC 2021-01-26 10:00:59
Tagged date : UTC 2021-01-26 10:01:06

   Похожие торренты   Торрент   Размер 
В этой теме нет новых непрочитанных сообщений. Кинг Конг / King Kong (2005) BDRip 1080p | Extended cut | D, P, P2, A

0 | 0

20.21 ГБ

В этой теме нет новых непрочитанных сообщений. Кинг Конг / King Kong (2005) UHD BDRip-HEVC 1080p от RIPS CLUB | HDR | D | Extended Cut

6 | 0

14.63 ГБ

В этой теме нет новых непрочитанных сообщений. Кинг Конг [Расширенная версия] / King Kong [Extended Cut] [Open Matte] (Питер Джексон) [2005, боевик, драма, мелодрама, приключения, фэнтези, HDTVRip-AVC] DUB+MVO

9 | 0

1.46 ГБ

В этой теме нет новых непрочитанных сообщений. Кинг Конг / King Kong (2005) WEB-DLRip-AVC | D | Open Matte | Театральная версия

0 | 0

4.37 ГБ

В этой теме нет новых непрочитанных сообщений. Кинг Конг / King Kong (2005) UHD BDRemux 2160p | 4K | HDR | Режиссерская версия | D, P, A | Лицензия

8 | 3

100.19 ГБ

В этой теме нет новых непрочитанных сообщений. Кинг-Конг / King Kong (1976) BDRip-HEVC 1080p | P, P2, A

15 | 3

10.69 ГБ

В этой теме нет новых непрочитанных сообщений. Кинг Конг против Годзиллы / Kingu Kongu tai Gojira / King Kong vs. Godzilla (1962) BDRip 720p от ExKinoRay | A

0 | 0

4 ГБ




Вы не можете начинать темы
Вы не можете отвечать на сообщения
Вы не можете редактировать свои сообщения
Вы не можете удалять свои сообщения
Вы не можете добавлять вложения

Перейти:  
Контактная информация: rstracker[пёсик]yandex.ru
 Вход
ppkBB3cker v.2 © 2008-2014 @ PPK
[ Time : 0.033s | 21 Queries | GZIP : Off ]

cron