img image001 image001 image001 image001 image001 image001 image001 image001 image001 image001 image001 image001 image001 image001 image001

Planets Sun Sun Sun
Статистика раздачи
Автор: PriZraK | Размер: 14.98 ГБ | Добавлен: 22 мар 2022
Раздают: 0    Качают: 0
Скачать торрент
Скачать торрент
Описание торрента

СообщениеДобавлено: 22 мар 2022 

Название: Звонок 2
Оригинальное название: The Ring Two
Год выхода: 2005
Страна: США
Студия: Dreamworks Pictures, BenderSpink, Parkes/MacDonald Image Nation
Продолжительность: 02:07:44
Жанр: ужасы, детектив, триллер

Режиссер: Хидэо Наката
В ролях: Наоми Уоттс, Саймон Бейкер, Дэвид Дорфман, Элизабет Перкинс, Гэри Коул, Сисси Спейсек, Райан Мерриман, Эмили ВанКэмп, Келли Овертон, Джеймс Лежер, ...

Перевод:
- авторский (одноголосый, закадровый) Немахов Юрий Геннадьевич
- авторский (одноголосый, закадровый) Дольский Андрей Игоревич
- субтитры

О фильме: Чтобы избавиться от кошмарных воспоминаний и начать новую жизнь, Рейчел с сыном переезжают в маленький городок в штате Орегон. Но, когда совершается убийство и на месте преступления обнаруживают загадочную, не подписанную видеокассету, Рейчел понимает, что мстительная Самара вернулась и решительнее, чем прежде намерена продолжить свой безжалостный террор. В отчаянной борьбе за жизнь, свою и сына, Рейчел вновь должна противостоять Самаре…



Кодек: x264
Качество: BDRip 1080p
Видео: 1920x1040, 14000 kbps, 23,976 fps
Аудио #1: AC-3, 6 ch, 640 kbps (Rus) - AVO Немахов Юрий Геннадьевич
Аудио #2: AC-3, 6 ch, 640 kbps (Rus) - AVO Дольский Андрей Игоревич
Аудио #3: DTS, 6 ch, 1509 kbps (Eng)
Субтитры: русские (forced, full), английские

За исходник спасибо - Timur

x264 [info]: frame I:976 Avg QP:16.01 size:200846
x264 [info]: frame P:35077 Avg QP:18.25 size:119456
x264 [info]: frame B:147715 Avg QP:20.31 size: 61050
x264 [info]: consecutive B-frames: 1.3% 1.5% 4.3% 13.9% 16.0% 39.9% 8.6% 6.4% 3.2% 1.3% 1.1% 1.5% 0.4% 0.4% 0.3%

Общее
Уникальный идентификатор : 223947908906618091364955274199805110691 (0xA87ACC624761FEB9A9761A97AD8AA9A3)
Полное имя : Звонок 2 (The Ring Two) 2005 BDRip 1080p.mkv
Формат : Matroska
Версия формата : Version 2
Размер файла : 15,0 Гбайт
Продолжительность : 2 ч. 7 м.
Общий поток : 16,8 Мбит/сек
Дата кодирования : UTC 2021-01-06 19:25:05
Программа кодирования : mkvmerge v4.0.0 ('The Stars were mine') сборка от Jun 6 2010 16:18:42
Библиотека кодирования : libebml v1.0.0 + libmatroska v1.0.0

Видео
Идентификатор : 1
Формат : AVC
Формат/Информация : Advanced Video Codec
Профиль формата : High@L4.1
Параметр CABAC формата : Да
Параметр ReFrames формата : 4 кадра
Идентификатор кодека : V_MPEG4/ISO/AVC
Продолжительность : 2 ч. 7 м.
Битрейт : 14,0 Мбит/сек
Ширина : 1920 пикселей
Высота : 1040 пикселей
Соотношение сторон : 1,85:1
Режим частоты кадров : Постоянный
Частота кадров : 23,976 (24000/1001) кадра/сек
Цветовое пространство : YUV
Субдискретизация насыщенности : 4:2:0
Битовая глубина : 8 бит
Тип развёртки : Прогрессивная
Бит/(Пиксели*Кадры) : 0.292
Размер потока : 12,2 Гбайт (81%)
Библиотека кодирования : x264 core 161 r3027 4121277
Настройки программы : cabac=1 / ref=4 / deblock=1:-1:-1 / analyse=0x3:0x133 / me=umh / subme=11 / psy=1 / psy_rd=1.00:0.00 / mixed_ref=1 / me_range=32 / chroma_me=1 / trellis=2 / 8x8dct=1 / cqm=0 / deadzone=21,11 / fast_pskip=0 / chroma_qp_offset=-2 / threads=12 / lookahead_threads=2 / sliced_threads=0 / nr=0 / decimate=0 / interlaced=0 / bluray_compat=0 / constrained_intra=0 / bframes=14 / b_pyramid=2 / b_adapt=2 / b_bias=0 / direct=3 / weightb=1 / open_gop=0 / weightp=2 / keyint=240 / keyint_min=23 / scenecut=40 / intra_refresh=0 / rc=2pass / mbtree=0 / bitrate=14000 / ratetol=1.0 / qcomp=0.60 / qpmin=0 / qpmax=69 / qpstep=4 / cplxblur=20.0 / qblur=0.5 / ip_ratio=1.40 / pb_ratio=1.30 / aq=2:0.80
Язык : English
Default : Нет
Forced : Нет

Аудио #1
Идентификатор : 2
Формат : AC-3
Формат/Информация : Audio Coding 3
Расширение режима : CM (complete main)
Параметр Endianness формата : Big
Идентификатор кодека : A_AC3
Продолжительность : 2 ч. 7 м.
Вид битрейта : Постоянный
Битрейт : 640 Кбит/сек
Каналы : 6 каналов
Расположение каналов : Front: L C R, Side: L R, LFE
Частота : 48,0 КГц
Частота кадров : 31,250 кадров/сек (1536 spf)
Метод сжатия : С потерями
Размер потока : 585 Мбайт (4%)
Заголовок : AVO Немахов Юрий Геннадьевич (Yuriy Demigod)
Язык : Russian
Default : Нет
Forced : Нет

Аудио #2
Идентификатор : 3
Формат : AC-3
Формат/Информация : Audio Coding 3
Расширение режима : CM (complete main)
Параметр Endianness формата : Big
Идентификатор кодека : A_AC3
Продолжительность : 2 ч. 7 м.
Вид битрейта : Постоянный
Битрейт : 640 Кбит/сек
Каналы : 6 каналов
Расположение каналов : Front: L C R, Side: L R, LFE
Частота : 48,0 КГц
Частота кадров : 31,250 кадров/сек (1536 spf)
Метод сжатия : С потерями
Размер потока : 585 Мбайт (4%)
Заголовок : AVO Дольский Андрей Игоревич
Язык : Russian
Default : Нет
Forced : Нет

Аудио #3
Идентификатор : 4
Формат : DTS
Формат/Информация : Digital Theater Systems
Режим : 16
Параметр Endianness формата : Big
Идентификатор кодека : A_DTS
Продолжительность : 2 ч. 7 м.
Вид битрейта : Постоянный
Битрейт : 1509 Кбит/сек
Каналы : 6 каналов
Расположение каналов : Front: L C R, Side: L R, LFE
Частота : 48,0 КГц
Частота кадров : 93,750 кадра/сек (512 spf)
Битовая глубина : 24 бит
Метод сжатия : С потерями
Размер потока : 1,35 Гбайт (9%)
Язык : English
Default : Нет
Forced : Нет

Текст #1
Идентификатор : 5
Формат : UTF-8
Идентификатор кодека : S_TEXT/UTF8
Идентификатор кодека/Информация : UTF-8 Plain Text
Заголовок : Forced
Язык : Russian
Default : Нет
Forced : Нет

Текст #2
Идентификатор : 6
Формат : UTF-8
Идентификатор кодека : S_TEXT/UTF8
Идентификатор кодека/Информация : UTF-8 Plain Text
Язык : Russian
Default : Нет
Forced : Нет

Текст #3
Идентификатор : 7
Формат : UTF-8
Идентификатор кодека : S_TEXT/UTF8
Идентификатор кодека/Информация : UTF-8 Plain Text
Язык : English
Default : Нет
Forced : Нет

Меню
00:00:00.000 : en:Chapter 01
00:12:16.485 : en:Chapter 02
00:15:46.612 : en:Chapter 03
00:18:33.695 : en:Chapter 04
00:21:42.092 : en:Chapter 05
00:26:31.631 : en:Chapter 06
00:31:02.861 : en:Chapter 07
00:42:08.192 : en:Chapter 08
00:46:31.413 : en:Chapter 09
00:53:05.056 : en:Chapter 10
01:01:53.543 : en:Chapter 11
01:12:23.756 : en:Chapter 12
01:20:56.601 : en:Chapter 13
01:25:05.391 : en:Chapter 14
01:34:51.310 : en:Chapter 15
01:42:22.761 : en:Chapter 16
01:46:58.787 : en:Chapter 17
01:51:30.892 : en:Chapter 18
01:57:15.987 : en:Chapter 19
02:01:26.612 : en:Chapter 20
02:07:43.656 : en:Chapter 21



   Похожие торренты   Торрент   Размер 
В этой теме нет новых непрочитанных сообщений. Звонок 2 / The Ring Two (2005) BDRip-HEVC 1080p от RIPS CLUB | D, P2, A, L1 | Theatrical Cut

0 | 0

9.81 ГБ

В этой теме нет новых непрочитанных сообщений. Звонок 2 / The Ring Two (2005) WEBRip-AVC | D

0 | 3

2.18 ГБ

В этой теме нет новых непрочитанных сообщений. Звонок 2 / The Ring Two (2005) WEB-DLRip 720p от k.e.n & MegaPeer | D

1 | 0

4.37 ГБ

В этой теме нет новых непрочитанных сообщений. Звонок / The Ring (2002) BDRip-HEVC 1080p от RIPS CLUB | D, P, P2, A

0 | 0

8.69 ГБ

В этой теме нет новых непрочитанных сообщений. Звонок / The Ring (2002) DVDRip-AVC | D | Fullscreen

2 | 0

2.14 ГБ

В этой теме нет новых непрочитанных сообщений. Пришельцы-завоеватели / Evil Aliens (2005) BDRip 1080p | Unrated | P, L2, L1

0 | 0

8.56 ГБ

В этой теме нет новых непрочитанных сообщений. Американский пирог 4: Музыкальный лагерь / American Pie Presents: Band Camp (2005) BDRip-HEVC 1080p | Unrated Cut | D

9 | 0

9.26 ГБ




Вы не можете начинать темы
Вы не можете отвечать на сообщения
Вы не можете редактировать свои сообщения
Вы не можете удалять свои сообщения
Вы не можете добавлять вложения

Перейти:  
Контактная информация: rstracker[пёсик]yandex.ru
 Вход
ppkBB3cker v.2 © 2008-2014 @ PPK
[ Time : 0.030s | 17 Queries | GZIP : Off ]

cron