img image001 image001 image001 image001 image001 image001 image001 image001 image001 image001 image001 image001 image001 image001 image001

Planets Sun Sun Sun
Статистика раздачи
Автор: PriZraK | Размер: 745.98 МБ | Добавлен: 22 мар 2022
Раздают: 0    Качают: 0
Скачать торрент
Скачать торрент
Описание торрента

СообщениеДобавлено: 22 мар 2022 

Информация о фильме
Название: Лихорадка
Оригинальное название: Cabin Fever
Год выхода: 2016
Жанр: Ужасы
Режиссер: Трэвис Заривны
В ролях: Гейдж Голайтли, Мэттью Даддарио, Сэмюэл Дэвис (IV), Дастин Ингрэм, Рэнди Шульман, Джордж Гриффит, Аарон Трейнор, Луиза Линтон, Лаура Кенни

О фильме:
Ремейк "Лихорадки" (Cabin Fever) Эли Рота.
Пятеро друзей арендуют домик в лесу на весенние каникулы. Несмотря на странное поведение местных жителей, ребята намерены как следует расслабиться. Внезапно их планы нарушает встреча с бродягой с ужасной, будто бы гниющей кожей. Друзьям удается отделаться от несчастного, но они не знают, что он успел отравить местный водоем, и неизвестная инфекция уже распространяется по округе. Кто из них станет первой жертвой страшного вируса, пожирающего человеческую плоть?




Страна: США
Студия: Contend, Armory Films, Pelican Point Media
Продолжительность: 01:38:26
Перевод: Профессиональный (многоголосый закадровый) Киноужас
Cубтитры: Нет

Файл
Формат: MKV
Качество: HDRip-AVC
Видео: MPEG-4 AVC, 776x324, - 982 Кбит/с
Аудио: AAC-HE, 2 ch, - 76 Кбит/с
Общее
Уникальный идентификатор : 67470470311105861497016610515904711790 (0x32C25704909D6A0AE15D9185364D4C6E)
Полное имя : D:MOVIESCabin.Fever.2016HDRip-AVC.ExKinoRay.mkv
Формат : Matroska
Версия формата : Version 4 / Version 2
Размер файла : 746 Мбайт
Продолжительность : 1 ч. 38 м.
Общий поток : 1060 Кбит/сек
Дата кодирования : UTC 2019-09-19 17:01:26
Программа кодирования : mkvmerge v35.0.0 ('All The Love In The World') 64-bit
Библиотека кодирования : libebml v1.3.9 + libmatroska v1.5.2

Видео
Идентификатор : 1
Формат : AVC
Формат/Информация : Advanced Video Codec
Профиль формата : High@L4.1
Параметр CABAC формата : Да
Параметр RefFrames формата : 12 кадров
Идентификатор кодека : V_MPEG4/ISO/AVC
Продолжительность : 1 ч. 38 м.
Битрейт : 982 Кбит/сек
Ширина : 776 пикселей
Высота : 324 пикселя
Соотношение сторон : 2,40:1
Режим частоты кадров : Постоянный
Частота кадров : 23,976 (24000/1001) кадра/сек
Цветовое пространство : YUV
Субдискретизация насыщенности : 4:2:0
Битовая глубина : 8 бит
Тип развёртки : Прогрессивная
Бит/(Пиксели*Кадры) : 0.163
Размер потока : 691 Мбайт (93%)
Библиотека кодирования : x264 core 152 r2851kMod ba24899
Настройки программы : cabac=1 / ref=12 / deblock=1:-3:-3 / analyse=0x3:0x133 / me=umh / subme=10 / psy=1 / fade_compensate=0.00 / psy_rd=1.00:0.09 / mixed_ref=1 / me_range=32 / chroma_me=1 / trellis=2 / 8x8dct=1 / cqm=0 / deadzone=21,11 / fast_pskip=0 / chroma_qp_offset=-3 / threads=6 / lookahead_threads=1 / sliced_threads=0 / nr=0 / decimate=0 / interlaced=0 / bluray_compat=0 / constrained_intra=0 / bframes=12 / b_pyramid=2 / b_adapt=2 / b_bias=0 / direct=3 / weightb=1 / open_gop=0 / weightp=2 / keyint=240 / keyint_min=23 / scenecut=40 / intra_refresh=0 / rc_lookahead=40 / rc=2pass / mbtree=1 / bitrate=982 / ratetol=1.0 / qcomp=0.60 / qpmin=0 / qpmax=69 / qpstep=4 / cplxblur=20.0 / qblur=0.5 / ip_ratio=1.40 / aq=3:1.00
Default : Да
Forced : Нет

Аудио
Идентификатор : 2
Формат : AAC
Формат/Информация : Advanced Audio Codec
Профиль формата : HE-AAC / LC
Идентификатор кодека : A_AAC
Продолжительность : 1 ч. 38 м.
Битрейт : 76,0 Кбит/сек
Каналы : 2 канала
Расположение каналов : Front: L R
Частота : 48,0 КГц / 24,0 КГц
Частота кадров : 23,438 кадра/сек (1024 SPF)
Метод сжатия : С потерями
Задержка видео : 31 мс.
Размер потока : 53,5 Мбайт (7%)
Язык : Russian
Default : Да
Forced : Нет

Меню
00:00:00.000 : en:00:00:00.000
00:08:57.162 : en:00:08:57.162
00:17:30.174 : en:00:17:30.174
00:27:39.950 : en:00:27:39.950
00:35:34.799 : en:00:35:34.799
00:44:08.312 : en:00:44:08.312
00:50:33.948 : en:00:50:33.948
00:58:38.598 : en:00:58:38.598
01:06:51.716 : en:01:06:51.716
01:15:06.544 : en:01:15:06.544
01:24:03.163 : en:01:24:03.163
01:31:07.754 : en:01:31:07.754



   Похожие торренты   Торрент   Размер 
В этой теме нет новых непрочитанных сообщений. Лихорадка / Cabin Fever (2016) BDRip-AVC от ExKinoRay | P

0 | 0

1.79 ГБ

В этой теме нет новых непрочитанных сообщений. Тюльпанная лихорадка / Tulip Fever (2017) BDRip-AVC от ExKinoRay | iTunes

16 | 3

747.04 МБ

В этой теме нет новых непрочитанных сообщений. Лихорадка на белой полосе / White Line Fever (1975) BDRip-AVC от ExKinoRay | A

0 | 0

2.43 ГБ

В этой теме нет новых непрочитанных сообщений. Тюльпанная лихорадка / Tulip Fever (2017) BDRip от ExKinoRay | Лицензия

42 | 3

1.46 ГБ

В этой теме нет новых непрочитанных сообщений. Тюльпанная лихорадка / Tulip Fever (2017) HDRip от Scarabey | iTunes

165 | 7

1.4 ГБ

В этой теме нет новых непрочитанных сообщений. Тюльпанная лихорадка / Tulip Fever (2017) HDRip от Kaztorrents | КПК | Лицензия

7 | 3

398.69 МБ

В этой теме нет новых непрочитанных сообщений. Лихорадка джунглей / Jungle Fever (1991) BDRip-AVC от msltel | P2, A

0 | 0

4.12 ГБ




Вы не можете начинать темы
Вы не можете отвечать на сообщения
Вы не можете редактировать свои сообщения
Вы не можете удалять свои сообщения
Вы не можете добавлять вложения

Перейти:  
Контактная информация: rstracker[пёсик]yandex.ru
 Вход
ppkBB3cker v.2 © 2008-2014 @ PPK
[ Time : 0.021s | 18 Queries | GZIP : Off ]

cron