img image001 image001 image001 image001 image001 image001 image001 image001 image001 image001 image001 image001 image001 image001 image001

Planets Sun Sun Sun
Статистика раздачи
Автор: PriZraK | Размер: 3.41 ГБ | Добавлен: 22 мар 2022
Раздают: 0    Качают: 0
Скачать торрент
Скачать торрент
Описание торрента

СообщениеДобавлено: 22 мар 2022 

Год выпуска: 2021
Страна: США
Студия: Bloody Disgusting, BoulderLight Pictures
Жанр: Фантастика
Продолжительность: 01:24:05
Перевод: Авторский (А.Дольский), Профессиональный дублированный (iTunes)

Режиссер: Джефф Дэсом, Саман Кешаварц, Дуган О'Нил
В ролях: Лина Эско, Уилсон Бетел, Джош Пек, Джордан Рок, Дэвид Хэмпхилл, Джулианна Коллинз, Дариус Леванте, Кэти Кхан Нгуен, Рори Энн Даль, Кип Мэлоун

О фильме: Миллионы загадочных внеземных дверей внезапно появляются по всему миру. Правительство, ученые и даже обычные граждане пытаются определить причину их прибытия и понять цель этих сверхъестественных аномалий. Причудливые происшествия заставляют людей задуматься не только о собственном существовании, но так же об измененной реальности, с которой они сталкиваются по ту сторону дверей.


Качество: WEB-DL 1080p
Видео: MPEG-4 AVC, 4656 Kбит/c, 1920x818
Аудио 1: AC3, 6 ch, 384 Кбит/с | iTunes
Аудио 2: AC3, 6 ch, 384 Кбит/с | Дольский | Tnx.KinoPub
Аудио 3: AC3, 6 ch, 384 Кбит/с | ENG
Субтитры: Русские, aнглийские (Full)

Общее
Уникальный идентификатор : 172829681267351093108074001000076427397 (0x8205C92D04980274E31867CCEFE44085)
Полное имя : Doors.(2021).1080p.WEB-DL. .mkv
Формат : Matroska
Версия формата : Version 4
Размер файла : 3,41 Гбайт
Продолжительность : 1 ч. 24 м.
Общий поток : 5 811 Кбит/сек
Название фильма : Doors.(2021).1080p.WEB-DL.
Дата кодирования : UTC 2021-06-02 07:07:42
Программа кодирования : mkvmerge v53.0.0 ('Fool's Gold') 64-bit
Библиотека кодирования : libebml v1.4.1 + libmatroska v1.6.2

Видео
Идентификатор : 1
Формат : AVC
Формат/Информация : Advanced Video Codec
Профиль формата : High@L4
Настройки формата : CABAC / 5 Ref Frames
Параметр CABAC формата : Да
Параметр RefFrames формата : 5 кадров
Идентификатор кодека : V_MPEG4/ISO/AVC
Продолжительность : 1 ч. 24 м.
Битрейт : 4 656 Кбит/сек
Ширина : 1 920 пикселей
Высота : 818 пикселей
Соотношение сторон : 2,35:1
Режим частоты кадров : Постоянный
Частота кадров : 23,976 (24000/1001) кадра/сек
Цветовое пространство : YUV
Субдискретизация насыщенности : 4:2:0
Битовая глубина : 8 бит
Тип развёртки : Прогрессивная
Бит/(Пиксели*Кадры) : 0.124
Размер потока : 2,73 Гбайт (80%)
Язык : English
Default : Да
Forced : Нет
Цветовой диапазон : Limited
Основные цвета : BT.709
Характеристики трансфера : BT.709
Коэффициенты матрицы : BT.709

Аудио #1
Идентификатор : 2
Формат : AC-3
Формат/Информация : Audio Coding 3
Коммерческое название : Dolby Digital
Идентификатор кодека : A_AC3
Продолжительность : 1 ч. 24 м.
Вид битрейта : Постоянный
Битрейт : 384 Кбит/сек
Каналы : 6 каналов
Channel layout : L R C LFE Ls Rs
Частота : 48,0 КГц
Частота кадров : 31,250 кадров/сек (1536 SPF)
Метод сжатия : С потерями
Размер потока : 231 Мбайт (7%)
Заголовок : [DUB] iTunes
Язык : Russian
Service kind : Complete Main
Default : Да
Forced : Нет

Аудио #2
Идентификатор : 3
Формат : AC-3
Формат/Информация : Audio Coding 3
Коммерческое название : Dolby Digital
Идентификатор кодека : A_AC3
Продолжительность : 1 ч. 24 м.
Вид битрейта : Постоянный
Битрейт : 384 Кбит/сек
Каналы : 6 каналов
Channel layout : L R C LFE Ls Rs
Частота : 48,0 КГц
Частота кадров : 31,250 кадров/сек (1536 SPF)
Метод сжатия : С потерями
Размер потока : 231 Мбайт (7%)
Заголовок : [AVO] Дольский
Язык : Russian
Service kind : Complete Main
Default : Нет
Forced : Нет

Аудио #3
Идентификатор : 4
Формат : AC-3
Формат/Информация : Audio Coding 3
Коммерческое название : Dolby Digital
Идентификатор кодека : A_AC3
Продолжительность : 1 ч. 24 м.
Вид битрейта : Постоянный
Битрейт : 384 Кбит/сек
Каналы : 6 каналов
Channel layout : L R C LFE Ls Rs
Частота : 48,0 КГц
Частота кадров : 31,250 кадров/сек (1536 SPF)
Метод сжатия : С потерями
Размер потока : 231 Мбайт (7%)
Заголовок : [Original]
Язык : English
Service kind : Complete Main
Default : Нет
Forced : Нет

Текст #1
Идентификатор : 5
Формат : UTF-8
Идентификатор кодека : S_TEXT/UTF8
Идентификатор кодека/Информация : UTF-8 Plain Text
Продолжительность : 1 ч. 19 м.
Битрейт : 85 бит/сек
Count of elements : 1024
Размер потока : 49,7 Кбайт (0%)
Заголовок : [Full]
Язык : Russian
Default : Нет
Forced : Нет

Текст #2
Идентификатор : 6
Формат : UTF-8
Идентификатор кодека : S_TEXT/UTF8
Идентификатор кодека/Информация : UTF-8 Plain Text
Продолжительность : 1 ч. 17 м.
Битрейт : 46 бит/сек
Count of elements : 1012
Размер потока : 26,4 Кбайт (0%)
Заголовок : [Full]
Язык : English
Default : Нет
Forced : Нет

   Похожие торренты   Торрент   Размер 
В этой теме нет новых непрочитанных сообщений. Портал / Двери / Doors (2021) WEB-DL 1080p от ELEKTRI4KA | iTunes

0 | 0

3.19 ГБ

В этой теме нет новых непрочитанных сообщений. Портал / Двери / Doors (2021) BDRemux 1080p | iTunes

0 | 0

14.47 ГБ

В этой теме нет новых непрочитанных сообщений. Портал / Двери / Doors (2021) BDRip 1080p от MegaPeer | iTunes

0 | 0

7.18 ГБ

В этой теме нет новых непрочитанных сообщений. Портал / Двери / Doors (2021)WEB-DLRip от MegaPeer | A | Дольский

0 | 0

1.46 ГБ

В этой теме нет новых непрочитанных сообщений. Портал / Двери / Doors (2021) WEB-DLRip от ExKinoRay | iTunes

0 | 0

740.38 МБ

В этой теме нет новых непрочитанных сообщений. Портал / Двери / Doors (2021) WEB-DLRip от ELEKTRI4KA | iTunes

0 | 0

1.37 ГБ

В этой теме нет новых непрочитанных сообщений. Портал / Двери / Doors (2021) BDRip от MegaPeer | iTunes

0 | 0

746.26 МБ




Вы не можете начинать темы
Вы не можете отвечать на сообщения
Вы не можете редактировать свои сообщения
Вы не можете удалять свои сообщения
Вы не можете добавлять вложения

Перейти:  
Контактная информация: rstracker[пёсик]yandex.ru
 Вход
ppkBB3cker v.2 © 2008-2014 @ PPK
[ Time : 0.029s | 18 Queries | GZIP : Off ]

cron