img image001 image001 image001 image001 image001 image001 image001 image001 image001 image001 image001 image001 image001 image001 image001

Planets Sun Sun Sun
Статистика раздачи
Автор: PriZraK | Размер: 1.73 ГБ | Добавлен: 23 мар 2022
Раздают: 0    Качают: 0
Скачать торрент
Скачать торрент
Описание торрента

СообщениеДобавлено: 23 мар 2022 

Информация о фильме
Название: Все о сексе
Оригинальное название: All About Sex
Год выхода: 2020
Жанр: комедия
Режиссер: Дакота Шэйн Горман
В ролях: Эмма Декерс, Дакота Шэйн Горман, Натали Линес, Парвеш Шина, Грэхэм Отербридж, Мэтт Энджел, Сутеара Ватанасомбат, Диллон Лэйн, Джои Вахеди, Кейт Коэн

О фильме:
Самостоятельные и беспечные Морган, Кейси и Сэйдж — подруги. Кейси борется с депрессией, Сэйдж мечтает о карьере иллюстратора, а пока работает в кофейне. У Морган — перспективная работа в издательстве, но из-за нехватки денег она не прочь оказывать секс-услуги. Регулярные встречи за коктейлями и пиццей, откровенные шутки, разговоры о сексе, мужчинах, карьере и обо всем на свете помогают девушкам справляться с любыми проблемами.



Выпущено: США / Salt & Light Films, Warrior Woman Productions, RiverRun Entertainment
Продолжительность: 01:44:18
Перевод: Многоголосый профессиональный (iTunes)
Субтитры: Отсутствуют

Файл
Формат: Matroska
Качество: WEB-DLRip-AVC
Видео: 1024x510 at 23.976 fps, x264@L4.1, ~1793 kbps
Аудио 1: AC3, 6 ch, ~384 kbps - | Русский | -
Аудио 2: AC3, 2 ch, 192 Kbps - | Английский | -

***Релиз от: -=DoMiNo=-

x264 [info]: frame I:1177 Avg QP:15.04 size: 62004
x264 [info]: frame P:31826 Avg QP:16.44 size: 19284
x264 [info]: frame B:117055 Avg QP:17.71 size: 6119

General
Unique ID : 283869208075120129118421697073543832658 (0xD58F388724E8BD0D7D08C1F6D61EE452)
Complete name : I:All.About.Sex.(2020).WEB-DLRip-AVC.mkv
Format : Matroska
Format version : Version 4
File size : 1.73 GiB
Duration : 1 h 44 min
Overall bit rate : 2 371 kb/s
Encoded date : UTC 2021-09-21 09:48:18
Writing application : mkvmerge v61.0.0 ('So') 64-bit
Writing library : libebml v1.4.2 + libmatroska v1.6.4
Cover : Yes
Attachments : Cover.jpg / Cover 2.jpg

Video
ID : 1
Format : AVC
Format/Info : Advanced Video Codec
Format profile : High@L4.1
Format settings : CABAC / 12 Ref Frames
Format settings, CABAC : Yes
Format settings, Reference : 12 frames
Codec ID : V_MPEG4/ISO/AVC
Duration : 1 h 44 min
Bit rate : 1 793 kb/s
Width : 1 024 pixels
Height : 510 pixels
Display aspect ratio : 2.008
Frame rate mode : Constant
Frame rate : 23.976 (24000/1001) FPS
Color space : YUV
Chroma subsampling : 4:2:0
Bit depth : 8 bits
Scan type : Progressive
Bits/(Pixel*Frame) : 0.143
Stream size : 1.31 GiB (76%)
Title : -=DoMiNo=-
Writing library : x264 core 164 r3065+55M 280faca t_mod_New [(8 & 10)-bit@all X86_64]
Encoding settings : cabac=1 / ref=12 / deblock=1:-3:-2 / analyse=0x3:0x133 / me=umh / subme=10 / psy=1 / fade_compensate=0.00 / psy_rd=1.00:0.20 / mixed_ref=1 / me_range=32 / chroma_me=1 / trellis=2 / 8x8dct=1 / cqm=0 / deadzone=21,11 / fast_pskip=0 / chroma_qp_offset=-3 / threads=24 / lookahead_threads=3 / sliced_threads=0 / nr=0 / decimate=1 / interlaced=0 / bluray_compat=0 / constrained_intra=0 / fgo=0 / bframes=12 / b_pyramid=2 / b_adapt=2 / b_bias=0 / direct=1 / weightb=1 / open_gop=0 / weightp=2 / keyint=240 / keyint_min=23 / scenecut=40 / intra_refresh=0 / rc_lookahead=60 / rc=crf / mbtree=0 / crf=18.0000 / qcomp=0.60 / qpmin=0:0:0 / qpmax=69:69:69 / qpstep=4 / vbv_maxrate=50000 / vbv_bufsize=62500 / crf_max=0.0 / nal_hrd=none / filler=0 / ip_ratio=1.30 / pb_ratio=1.20 / aq=2:1.00 / aq-sensitivity=10.00 / aq-factor=1.00:1.00:1.00 / aq2=0 / aq3=0
Language : English
Default : Yes
Forced : No

Audio #1
ID : 2
Format : AC-3
Format/Info : Audio Coding 3
Commercial name : Dolby Digital
Codec ID : A_AC3
Duration : 1 h 44 min
Bit rate mode : Constant
Bit rate : 384 kb/s
Channel(s) : 6 channels
Channel layout : L R C LFE Ls Rs
Sampling rate : 48.0 kHz
Frame rate : 31.250 FPS (1536 SPF)
Compression mode : Lossy
Stream size : 286 MiB (16%)
Title : MVO (iTunes)
Language : Russian
Service kind : Complete Main
Default : Yes
Forced : No

Audio #2
ID : 3
Format : AC-3
Format/Info : Audio Coding 3
Commercial name : Dolby Digital
Codec ID : A_AC3
Duration : 1 h 44 min
Bit rate mode : Constant
Bit rate : 192 kb/s
Channel(s) : 2 channels
Channel layout : L R
Sampling rate : 48.0 kHz
Frame rate : 31.250 FPS (1536 SPF)
Compression mode : Lossy
Stream size : 143 MiB (8%)
Language : English
Service kind : Complete Main
Default : No
Forced : No

Menu
00:00:00.000 : :1
00:12:00.000 : :2
00:21:20.000 : :3
00:34:41.000 : :4
00:46:56.000 : :5
00:56:55.000 : :6
01:06:00.000 : :7
01:18:31.000 : :8
01:31:05.000 : :9
01:41:48.000 : :10

   Похожие торренты   Торрент   Размер 
В этой теме нет новых непрочитанных сообщений. Всё о сексе / Natural Disasters / All About Sex (2020) WEB-DLRip от ELEKTRI4KA | iTunes

0 | 0

1.45 ГБ

В этой теме нет новых непрочитанных сообщений. Всё о сексе / Natural Disasters / All About Sex (2020) WEB-DL 1080p от ELEKTRI4KA | iTunes

0 | 0

3.87 ГБ

В этой теме нет новых непрочитанных сообщений. Половое воспитание / Сексуальное просвещение / Всё о сексе / Sex Education [S02] (2020) WEB-DL 1080p | BTI Studio & Пифагор

0 | 0

19.83 ГБ

В этой теме нет новых непрочитанных сообщений. Половое воспитание / Сексуальное просвещение / Всё о сексе / Sex Education [S03] (2021) WEB-DLRip 720p | IdeaFilm

0 | 0

12.3 ГБ

В этой теме нет новых непрочитанных сообщений. Любовь, свадьбы и прочие катастрофы / Love, Weddings & Other Disasters (2020) HDRip-AVC от MediaBit | iTunes

0 | 0

2.05 ГБ

В этой теме нет новых непрочитанных сообщений. Половое воспитание / Сексуальное просвещение / Всё о сексе / Sex Education [S01-02] (2019-2020) WEBRip-HEVC 1080p от HEVC-CLUB | P, P2

7 | 14

43.11 ГБ

В этой теме нет новых непрочитанных сообщений. Половое воспитание / Сексуальное просвещение / Всё о сексе / Sex Education [S03] (2021) WEB-DL 1080p | Пифагор

0 | 0

18.55 ГБ




Вы не можете начинать темы
Вы не можете отвечать на сообщения
Вы не можете редактировать свои сообщения
Вы не можете удалять свои сообщения
Вы не можете добавлять вложения

Перейти:  
Контактная информация: rstracker[пёсик]yandex.ru
 Вход
ppkBB3cker v.2 © 2008-2014 @ PPK
[ Time : 0.019s | 17 Queries | GZIP : Off ]

cron