img image001 image001 image001 image001 image001 image001 image001 image001 image001 image001 image001 image001 image001 image001 image001

Planets Sun Sun Sun
Статистика раздачи
Автор: PriZraK | Размер: 9.64 ГБ | Добавлен: 23 мар 2022
Раздают: 0    Качают: 0
Скачать торрент
Скачать торрент
Описание торрента

СообщениеДобавлено: 23 мар 2022 

Название: Фантоцци
Оригинальное название: Fantozzi
Страна: Италия
Жанр: комедия
Год выпуска: 1975
Продолжительность: 01:48:04

Перевод: профессиональные многоголосые (ОРТ и Мастер Тейп), авторские (Николай Золотухин (А. Яблоков) и Сергей Козлов)
Субтитры: итальянские (SDH), английские (SDH)

Режиссер: Лучано Сальче
В ролях: Паоло Вилладжо, Анна Маццамауро, Жижи Редер, Джузеппе Анатрелли, Умберто Д’Орси, Лью Босисио, Дино Эмануэлли, Плинио Фернандо, Паоло Паолони, Елена Триколи

О фильме: Бухгалтер средних лет Уго Фантоцци живёт в бедно обставленной квартире с нелюбимой женой и уродливой дочерью. Его жизнь полна неудач и разочарований, несчастья сыплются на него, как из ведра. Однако Фантоцци не лишён самоиронии и чувства собственного достоинства... Экранизация книг Паоло Виладжио «Фантоцци» и «Вторая трагическая книга Фантоцци». Первая часть декалогии.



Качество: BDRip 720p
Формат: MKV
Видео: MPEG-4 AVC, 1280x690, 10.2 Mbps
Аудио 1: AC3, 2 ch, 192 kbps | русский (ОРТ)
Аудио 2: AC3, 2 ch, 224 kbps | русский (Мастер Тейп)
Аудио 3: AC3, 2 ch, 256 kbps | русский (Николай Золотухин (А. Яблоков))
Аудио 4: AC3, 1 ch, 384 kbps | русский (Сергей Козлов)
Аудио 5: DTS, 2 ch, 1509 kbps | итальянский
Субтитры 1: итальянские (SRT)
Субтитры 2: английские (SRT)
Главы/чаптеры
Код:
Общее
Уникальный идентификатор                 : 150327339473577837728757126238545159641 (0x7117FE118BA50D7B2D68EF9BA11CA5D9)
Полное имя                               : D:VideoФантоцци.1975.BDRip 720p msltel.mkv
Формат                                   : Matroska
Версия формата                           : Version 4
Размер файла                             : 9,64 Гбайт
Продолжительность                        : 1 ч. 48 м.
Общий поток                              : 12,8 Мбит/сек
Название фильма                          : Фантоцци.1975.BDRip 720p msltel
Дата кодирования                         : UTC 2021-11-01 12:51:00
Программа кодирования                    : mkvmerge v44.0.0 ('Domino') 64-bit
Библиотека кодирования                   : libebml v1.3.10 + libmatroska v1.5.2

Видео
Идентификатор                            : 1
Формат                                   : AVC
Формат/Информация                        : Advanced Video Codec
Профиль формата                          : High@L4.1
Настройки формата                        : CABAC / 9 Ref Frames
Параметр CABAC формата                   : Да
Параметр RefFrames формата               : 9 кадров
Идентификатор кодека                     : V_MPEG4/ISO/AVC
Продолжительность                        : 1 ч. 48 м.
Битрейт                                  : 10,2 Мбит/сек
Ширина                                   : 1 280 пикселей
Высота                                   : 690 пикселей
Соотношение сторон                       : 1,85:1
Режим частоты кадров                     : Постоянный
Частота кадров                           : 24,000 кадра/сек
Цветовое пространство                    : YUV
Субдискретизация насыщенности            : 4:2:0
Битовая глубина                          : 8 бит
Тип развёртки                            : Прогрессивная
Бит/(Пиксели*Кадры)                      : 0.481
Размер потока                            : 7,70 Гбайт (80%)
Библиотека кодирования                   : x264 core 164 r3075 66a5bc1
Настройки программы                      : cabac=1 / ref=9 / deblock=1:-3:-3 / analyse=0x3:0x113 / me=umh / subme=11 / psy=1 / psy_rd=1.00:0.05 / mixed_ref=1 / me_range=32 / chroma_me=1 / trellis=2 / 8x8dct=1 / cqm=0 / deadzone=21,11 / fast_pskip=0 / chroma_qp_offset=-3 / threads=12 / lookahead_threads=3 / sliced_threads=0 / nr=0 / decimate=0 / interlaced=0 / bluray_compat=0 / constrained_intra=0 / bframes=12 / b_pyramid=2 / b_adapt=2 / b_bias=0 / direct=1 / weightb=1 / open_gop=0 / weightp=2 / keyint=230 / keyint_min=23 / scenecut=40 / intra_refresh=0 / rc_lookahead=40 / rc=crf / mbtree=0 / crf=17.6 / qcomp=0.60 / qpmin=0 / qpmax=69 / qpstep=4 / vbv_maxrate=50000 / vbv_bufsize=62500 / crf_max=0.0 / nal_hrd=none / filler=0 / ip_ratio=1.40 / pb_ratio=1.30 / aq=3:1.00
Язык                                     : Italian
Default                                  : Да
Forced                                   : Нет

Аудио #1
Идентификатор                            : 2
Формат                                   : AC-3
Формат/Информация                        : Audio Coding 3
Коммерческое название                    : Dolby Digital
Идентификатор кодека                     : A_AC3
Продолжительность                        : 1 ч. 48 м.
Вид битрейта                             : Постоянный
Битрейт                                  : 192 Кбит/сек
Каналы                                   : 2 канала
Channel layout                           : L R
Частота                                  : 48,0 КГц
Частота кадров                           : 31,250 кадров/сек (1536 SPF)
Метод сжатия                             : С потерями
Размер потока                            : 148 Мбайт (2%)
Заголовок                                : MVO OPT
Язык                                     : Russian
Service kind                             : Complete Main
Default                                  : Да
Forced                                   : Нет

Аудио #2
Идентификатор                            : 3
Формат                                   : AC-3
Формат/Информация                        : Audio Coding 3
Коммерческое название                    : Dolby Digital
Идентификатор кодека                     : A_AC3
Продолжительность                        : 1 ч. 48 м.
Вид битрейта                             : Постоянный
Битрейт                                  : 224 Кбит/сек
Каналы                                   : 2 канала
Channel layout                           : L R
Частота                                  : 48,0 КГц
Частота кадров                           : 31,250 кадров/сек (1536 SPF)
Метод сжатия                             : С потерями
Размер потока                            : 173 Мбайт (2%)
Заголовок                                : MVO Мастер Тейп
Язык                                     : Russian
Service kind                             : Complete Main
Default                                  : Нет
Forced                                   : Нет

Аудио #3
Идентификатор                            : 4
Формат                                   : AC-3
Формат/Информация                        : Audio Coding 3
Коммерческое название                    : Dolby Digital
Идентификатор кодека                     : A_AC3
Продолжительность                        : 1 ч. 48 м.
Вид битрейта                             : Постоянный
Битрейт                                  : 256 Кбит/сек
Каналы                                   : 2 канала
Channel layout                           : L R
Частота                                  : 48,0 КГц
Частота кадров                           : 31,250 кадров/сек (1536 SPF)
Метод сжатия                             : С потерями
Размер потока                            : 198 Мбайт (2%)
Заголовок                                : Николай Золотухин (А. Яблоков)
Язык                                     : Russian
Service kind                             : Complete Main
Default                                  : Нет
Forced                                   : Нет

Аудио #4
Идентификатор                            : 5
Формат                                   : AC-3
Формат/Информация                        : Audio Coding 3
Коммерческое название                    : Dolby Digital
Идентификатор кодека                     : A_AC3
Продолжительность                        : 1 ч. 48 м.
Вид битрейта                             : Постоянный
Битрейт                                  : 384 Кбит/сек
Каналы                                   : 1 канал
Channel layout                           : C
Частота                                  : 48,0 КГц
Частота кадров                           : 31,250 кадров/сек (1536 SPF)
Метод сжатия                             : С потерями
Размер потока                            : 297 Мбайт (3%)
Заголовок                                : Сергей Козлов
Язык                                     : Russian
Service kind                             : Complete Main
Default                                  : Нет
Forced                                   : Нет

Аудио #5
Идентификатор                            : 6
Формат                                   : DTS
Формат/Информация                        : Digital Theater Systems
Идентификатор кодека                     : A_DTS
Продолжительность                        : 1 ч. 48 м.
Вид битрейта                             : Постоянный
Битрейт                                  : 1 509 Кбит/сек
Каналы                                   : 2 канала
Channel layout                           : L R
Частота                                  : 48,0 КГц
Частота кадров                           : 93,750 кадра/сек (512 SPF)
Битовая глубина                          : 24 бит
Метод сжатия                             : С потерями
Размер потока                            : 1,14 Гбайт (12%)
Заголовок                                : original
Язык                                     : Italian
Default                                  : Нет
Forced                                   : Нет

Текст #1
Идентификатор                            : 7
Формат                                   : UTF-8
Идентификатор кодека                     : S_TEXT/UTF8
Идентификатор кодека/Информация          : UTF-8 Plain Text
Продолжительность                        : 1 ч. 47 м.
Битрейт                                  : 57 бит/сек
Count of elements                        : 1027
Размер потока                            : 45,1 Кбайт (0%)
Заголовок                                : итальянские
Язык                                     : Italian
Default                                  : Нет
Forced                                   : Нет

Текст #2
Идентификатор                            : 8
Формат                                   : UTF-8
Идентификатор кодека                     : S_TEXT/UTF8
Идентификатор кодека/Информация          : UTF-8 Plain Text
Продолжительность                        : 1 ч. 45 м.
Битрейт                                  : 50 бит/сек
Count of elements                        : 1005
Размер потока                            : 39,0 Кбайт (0%)
Заголовок                                : английские
Язык                                     : English
Default                                  : Нет
Forced                                   : Нет

Меню
00:00:00.000                             : it:Inizio film (il ritrovamento)
00:03:52.666                             : it:Ritorno in ufficio
00:05:32.957                             : it:Il cartellino
00:12:14.833                             : it:La signorina Silvani
00:19:12.750                             : it:Scapoli e ammogliati
00:25:53.249                             : it:Il campeggio del lago
00:35:06.583                             : it:L'Olimpo del 18' piano
00:38:04.541                             : it:Veglione di capodanno
00:46:37.208                             : it:Il feroce Catellani
00:53:04.125                             : it:La sfida a biliardo
01:01:51.417                             : it:Il tennis
01:06:03.583                             : it:La clinica dimagrante
01:12:28.901                             : it:Al ristorante giapponese
01:22:21.875                             : it:Courmayeur
01:30:17.957                             : it:Pistaaa!
01:35:21.874                             : it:La pecora rossa
01:38:33.582                             : it:Il megadirettore
01:45:51.625                             : it:Titoli di coda




   Похожие торренты   Торрент   Размер 
В этой теме нет новых непрочитанных сообщений. Фантоцци / Fantozzi (1975) BDRip-AVC от msltel | P, A | Расширенная версия

2 | 0

4.24 ГБ

В этой теме нет новых непрочитанных сообщений. Фантоцци / Fantozzi (1975) BDRemux 1080p | P, A | Расширенная версия

0 | 0

28.82 ГБ

В этой теме нет новых непрочитанных сообщений. Добровольцы поневоле / Stripes (1981) BDRip 720p от msltel | P, P2, A, L1 | Расширенная версия

0 | 0

14.66 ГБ

В этой теме нет новых непрочитанных сообщений. У Фантоцци опять неприятности / Fantozzi subisce ancora (1983) WEB-DL 1080p | P, A

0 | 0

9.03 ГБ

В этой теме нет новых непрочитанных сообщений. Бархатная золотая жила / Velvet Goldmine (1998) BDRip 720p от msltel | P | Расширенная версия

0 | 0

9.74 ГБ

В этой теме нет новых непрочитанных сообщений. Крэйзи / Havoc (2005) BDRip-AVC от msltel | A | Расширенная версия

0 | 0

3.11 ГБ

В этой теме нет новых непрочитанных сообщений. Добровольцы поневоле / Stripes (1981) BDRip-AVC от msltel | P, A | Расширенная версия

0 | 0

4.5 ГБ




Вы не можете начинать темы
Вы не можете отвечать на сообщения
Вы не можете редактировать свои сообщения
Вы не можете удалять свои сообщения
Вы не можете добавлять вложения

Перейти:  
Контактная информация: rstracker[пёсик]yandex.ru
 Вход
ppkBB3cker v.2 © 2008-2014 @ PPK
[ Time : 0.021s | 17 Queries | GZIP : Off ]

cron