img image001 image001 image001 image001 image001 image001 image001 image001 image001 image001 image001 image001 image001 image001 image001

Planets Sun Sun Sun
Статистика раздачи
Автор: PriZraK | Размер: 7.47 ГБ | Добавлен: 23 мар 2022
Раздают: 0    Качают: 0
Скачать торрент
Скачать торрент
Описание торрента

СообщениеДобавлено: 23 мар 2022 

Год выпуска: 1979
Страна: Франция, Великобритания
Жанр: фантастика, боевик, триллер, приключения
Продолжительность: 02:06:28
Перевод: Профессиональный (многоголосый, закадровый), Авторский одноголосый Ю.Живова
Русские субтитры: есть
Режиссер: Льюис Гилберт / Lewis Gilbert
В ролях: Роджер Мур, Лоис Чайлз, Микаэль Лонсдаль, Ричард Кил, Коринн Клери, Бернард Ли, Джефри Кин, Дезмонд Льюэлин, Лоис Максуэлл, Тоширо Суга и др.

Описание: За маской добропорядочного американского миллиардера скрывается истинное лицо сумасшедшего ученого. Он вынашивает безумный по своей жестокости план: устроить на Земле апокалипсис, и когда на планете не останется ни одной живой души, населить ее выращенными на космической станции суперлюдьми.
Чтобы помешать планам Дракса, Бонду приходится побывать в Калифорнии, Бразилии, джунглях Амазонки и, в конце концов, отправиться в космос, где и произойдут самые главные события.





Общее
Уникальный идентификатор : 212525724770821869591416720648630379631 (0x9FE2F73A01E499EBA65A5B2B222B246F)
Полное имя : G:Dzhejm.bond.007.Proekt.lunnyi.gonchik.1979.x264.BDRip.(720p).HQ-Films.mkv
Формат : Matroska
Версия формата : Version 1
Размер файла : 7,47 Гбайт
Продолжительность : 2 ч. 6 м.
Общий поток : 8456 Кбит/сек
Название фильма : HQ-Films
Дата кодирования : UTC 2009-03-20 14:55:01
Программа кодирования : mkvmerge v2.4.0 ('Fumbling Towards Ecstasy') built on Oct 11 2008 20:13:15
Библиотека кодирования : libebml v0.7.7 + libmatroska v0.8.1
Attachments : CronosPro-Bold.ttf / CronosPro-Semibold.ttf / CronosPro-SemiboldIt.ttf

Видео
Идентификатор : 1
Формат : AVC
Формат/Информация : Advanced Video Codec
Профиль формата : High@L4.1
Параметр CABAC формата : Да
Параметр ReFrames формата : 4 кадра
Идентификатор кодека : V_MPEG4/ISO/AVC
Продолжительность : 2 ч. 6 м.
Битрейт : 5740 Кбит/сек
Ширина : 1280 пикселей
Высота : 544 пикселя
Соотношение сторон : 2,35:1
Режим частоты кадров : Постоянный
Частота кадров : 23,976 кадра/сек
Цветовое пространство : YUV
Субдискретизация насыщенности : 4:2:0
Битовая глубина : 8 бит
Тип развёртки : Прогрессивная
Бит/(Пиксели*Кадры) : 0.344
Размер потока : 4,93 Гбайт (66%)
Заголовок : Moonraker
Библиотека кодирования : x264 core 67 r1125M 10d6ef0
Настройки программы : cabac=1 / ref=4 / deblock=1:-3:-3 / analyse=0x3:0x133 / me=umh / subme=9 / psy_rd=0.7:0.7 / mixed_ref=1 / me_range=24 / chroma_me=1 / trellis=2 / 8x8dct=1 / cqm=2 / deadzone=21,11 / chroma_qp_offset=-4 / threads=6 / nr=0 / decimate=0 / mbaff=0 / bframes=3 / b_pyramid=1 / b_adapt=2 / b_bias=0 / direct=3 / wpredb=1 / keyint=250 / keyint_min=25 / scenecut=40 / rc=2pass / bitrate=5740 / ratetol=1.0 / qcomp=0.60 / qpmin=10 / qpmax=35 / qpstep=4 / cplxblur=20.0 / qblur=0.5 / vbv_maxrate=40000 / vbv_bufsize=40000 / ip_ratio=1.40 / pb_ratio=1.30 / aq=1:0.70
Язык : English
Default : Да
Forced : Нет

Аудио #1
Идентификатор : 2
Формат : AC-3
Формат/Информация : Audio Coding 3
Расширение режима : CM (complete main)
Параметр Endianness формата : Big
Идентификатор кодека : A_AC3
Продолжительность : 2 ч. 6 м.
Вид битрейта : Постоянный
Битрейт : 448 Кбит/сек
Каналы : 6 каналов
Расположение каналов : Front: L C R, Side: L R, LFE
Частота : 48,0 КГц
Частота кадров : 31,250 кадров/сек (1536 spf)
Метод сжатия : С потерями
Размер потока : 405 Мбайт (5%)
Заголовок : Многоголосый
Язык : Russian
Default : Да
Forced : Нет

Аудио #2
Идентификатор : 3
Формат : DTS
Формат/Информация : Digital Theater Systems
Режим : 16
Параметр Endianness формата : Big
Идентификатор кодека : A_DTS
Продолжительность : 2 ч. 6 м.
Вид битрейта : Постоянный
Битрейт : 755 Кбит/сек
Каналы : 6 каналов
Расположение каналов : Front: L C R, Side: L R, LFE
Частота : 48,0 КГц
Частота кадров : 93,750 кадра/сек (512 spf)
Битовая глубина : 24 бит
Метод сжатия : С потерями
Размер потока : 683 Мбайт (9%)
Заголовок : Живов
Язык : Russian
Default : Нет
Forced : Нет

Аудио #3
Идентификатор : 4
Формат : DTS
Формат/Информация : Digital Theater Systems
Режим : 16
Параметр Endianness формата : Big
Идентификатор кодека : A_DTS
Продолжительность : 2 ч. 6 м.
Вид битрейта : Постоянный
Битрейт : 1509 Кбит/сек
Каналы : 6 каналов
Расположение каналов : Front: L C R, Side: L R, LFE
Частота : 48,0 КГц
Частота кадров : 93,750 кадра/сек (512 spf)
Битовая глубина : 24 бит
Метод сжатия : С потерями
Размер потока : 1,33 Гбайт (18%)
Заголовок : DTS 5.1 @ 1.5 Mbps
Язык : English
Default : Нет
Forced : Нет

Текст #1
Идентификатор : 5
Формат : UTF-8
Идентификатор кодека : S_TEXT/UTF8
Идентификатор кодека/Информация : UTF-8 Plain Text
Язык : Russian
Default : Нет
Forced : Нет

Текст #2
Идентификатор : 6
Формат : ASS
Идентификатор кодека : S_TEXT/ASS
Идентификатор кодека/Информация : Advanced Sub Station Alpha
Метод сжатия : Без потерь
Язык : English
Default : Нет
Forced : Нет



Качество: BDRip 720p
Формат: MKV
Видео кодек: x.264
Видео: 1280x544 (2.35:1), 23.976 fps, AVC, ~5740 Kbps, 0.344 bits/pixel
Аудио #1: Russian, 48.0 KHz, AC3, 6 ch, 448 Kbps - Многоголосый
Аудио #2: Russian, 48.0 KHz, DTS, 6 ch, 755 Kbps - Живов
Аудио #3: English, 48.0 KHz, DTS, 6 ch, 1510 Kbps - DTS 5.1 @ 1.5 Mbps
Субтитры: Русские, английские



   Похожие торренты   Торрент   Размер 
В этой теме нет новых непрочитанных сообщений. Джеймс Бонд 007: Лунный гонщик / James Bond 007: Moonraker (1979) BDRip 1080p | P, P2, A

3 | 0

19.55 ГБ

В этой теме нет новых непрочитанных сообщений. Джеймс Бонд 007: Казино Рояль / James Bond 007: Casino Royale (2006) BDRip 720p | D, P2, A

0 | 0

14.64 ГБ

В этой теме нет новых непрочитанных сообщений. Джеймс Бонд 007: Лицензия на убийство / James Bond 007: Licence to Kill (1989) BDRip-AVC от ExKinoRay

2 | 0

5.83 ГБ

В этой теме нет новых непрочитанных сообщений. Джеймс Бонд 007: Доктор Ноу / James Bond 007: Dr. No (1962) BDRemux 1080p | D, P, A

0 | 0

30.38 ГБ

В этой теме нет новых непрочитанных сообщений. Джеймс Бонд 007: Голдфингер / James Bond 007: Goldfinger (1964) BDRemux 1080p | D, P, P2, A

1 | 2

30.21 ГБ

В этой теме нет новых непрочитанных сообщений. Джеймс Бонд 007: Шаровая молния / James Bond 007: Thunderball (1965) BDRemux 1080p | D, P, P2, A

0 | 0

29.97 ГБ

В этой теме нет новых непрочитанных сообщений. Джеймс Бонд 007: Живешь только дважды / James Bond 007: You Only Live Twice (1967) BDRemux 1080p | D, P, P2, A

0 | 0

28.99 ГБ




Вы не можете начинать темы
Вы не можете отвечать на сообщения
Вы не можете редактировать свои сообщения
Вы не можете удалять свои сообщения
Вы не можете добавлять вложения

Перейти:  
Контактная информация: rstracker[пёсик]yandex.ru
 Вход
ppkBB3cker v.2 © 2008-2014 @ PPK
[ Time : 0.034s | 18 Queries | GZIP : Off ]

cron