img image001 image001 image001 image001 image001 image001 image001 image001 image001 image001 image001 image001 image001 image001 image001

Planets Sun Sun Sun
Статистика раздачи
Автор: PriZraK | Размер: 12.51 ГБ | Добавлен: 23 мар 2022
Раздают: 0    Качают: 3
Скачать торрент
Скачать торрент
Описание торрента

СообщениеДобавлено: 23 мар 2022 

Информация о фильме
Название: Три мушкетера
Оригинальное название: Les 3 Mousquetaires
Год выхода: 1953
Жанр: Приключения

Режиссер: Андре Юнебель
В ролях: Бурвиль, Ивон Сансон, Джино Керви, Жорж Маршаль, Даниель Годе, Жан Мартинелли, Жак Франсуа, Жанн-Марк Теннберг, Мари Сабурэ, Жан Пареде, Феликс Одар, Рено Мари, Жорж Шамара, Луи Арбессье, Франсуаз Прево, Стив Барклай

О фильме:
Классический случай, когда молодость и присущая ей бесшабашность — не порок, а дорога к славе. Бедный гасконский дворянин, благодаря безрассудной храбрости, сумел спасти со своими друзьями-мушкетерами честь королевы Франции. Несмотря на все козни, чинимые кардиналом Ришелье руками своих подручных.



Страна: Франция, Италия
Студия: Pathé Consortium Cinéma, Pathé-Cinéma, Produzioni Atlas Consorziate (P.A.C.), Société Générale de Cinématographie, Titanus
Продолжительность: 01:56:47
Перевод: Профессиональный (многоголосый. закадровый) | Киностудии «Фильм-Экспорт» по заказу телерадиокомпании «Останкино»

Файл
Качество: BDRip 1080p
Исходник: Les.3.Mousquetaires.1953.COMPLETE.BLURAY-UNiVERSUM
Формат: MKV
Кодек: MPEG-4 AVC
Видео: 1472x1080 (4:3), 24 fps, MPEG-4 AVC ~ 14.5 Mbps avg, 0.380 bit/pixel
Аудио: AC3, 48 kHz, 2 ch, ~192.00 kbps avg | русский | MVO |
Аудио: AC3, 48 kHz, 2 ch, ~640.00 kbps avg | французский |
Субтитры: Английские (full)



Релиз:
Общее
Уникальный идентификатор : 244858147619302363286068283433748826890 (0xB835F6BFB50E343493574793293C8B0A)
Полное имя : Les.3.Mousquetaires.1953.1080p.BluRay.DD.2.0.x264.MegaPeer.mkv
Формат : Matroska
Версия формата : Version 4
Размер файла : 12,5 Гбайт
Продолжительность : 1 ч. 56 м.
Общий поток : 15,3 Мбит/сек
Название фильма : Три мушкетера / Les 3 Mousquetaires (1953) от stillet@MegaPeer
Дата кодирования : UTC 2021-12-26 13:42:13
Программа кодирования : mkvmerge v15.0.0 ('Duel with the Devil') 64-bit
Библиотека кодирования : libebml v1.3.5 + libmatroska v1.4.5
Обложка : Yes
Attachments : cover.jpg

Видео
Идентификатор : 1
Формат : AVC
Формат/Информация : Advanced Video Codec
Профиль формата : High@L4.1
Настройки формата : CABAC / 4 Ref Frames
Параметр CABAC формата : Да
Параметр RefFrames формата : 4 кадра
Идентификатор кодека : V_MPEG4/ISO/AVC
Продолжительность : 1 ч. 56 м.
Битрейт : 14,5 Мбит/сек
Ширина : 1 472 пикселя
Высота : 1 080 пикселей
Соотношение сторон : 4:3
Режим частоты кадров : Постоянный
Частота кадров : 24,000 кадра/сек
Цветовое пространство : YUV
Субдискретизация насыщенности : 4:2:0
Битовая глубина : 8 бит
Тип развёртки : Прогрессивная
Бит/(Пиксели*Кадры) : 0.380
Размер потока : 11,8 Гбайт (95%)
Заголовок : stillet@MegaPeer
Библиотека кодирования : x264 core 161 r3018 db0d417
Настройки программы : cabac=1 / ref=4 / deblock=1:-3:-3 / analyse=0x3:0x113 / me=umh / subme=10 / psy=1 / psy_rd=1.05:0.03 / mixed_ref=1 / me_range=48 / chroma_me=1 / trellis=2 / 8x8dct=1 / cqm=0 / deadzone=21,11 / fast_pskip=0 / chroma_qp_offset=-3 / threads=24 / lookahead_threads=6 / sliced_threads=0 / nr=0 / decimate=0 / interlaced=0 / bluray_compat=0 / constrained_intra=0 / bframes=10 / b_pyramid=2 / b_adapt=2 / b_bias=0 / direct=3 / weightb=1 / open_gop=0 / weightp=2 / keyint=240 / keyint_min=24 / scenecut=40 / intra_refresh=0 / rc_lookahead=40 / rc=2pass / mbtree=0 / bitrate=14500 / ratetol=1.0 / qcomp=0.60 / qpmin=0 / qpmax=69 / qpstep=4 / cplxblur=20.0 / qblur=0.5 / vbv_maxrate=50000 / vbv_bufsize=62500 / nal_hrd=none / filler=0 / ip_ratio=1.40 / pb_ratio=1.30 / aq=1:1.10
Язык : German
Default : Да
Forced : Нет

Аудио #1
Идентификатор : 2
Формат : AC-3
Формат/Информация : Audio Coding 3
Коммерческое название : Dolby Digital
Идентификатор кодека : A_AC3
Продолжительность : 1 ч. 56 м.
Вид битрейта : Постоянный
Битрейт : 192 Кбит/сек
Каналы : 2 канала
Channel layout : L R
Частота : 48,0 КГц
Частота кадров : 31,250 кадров/сек (1536 SPF)
Метод сжатия : С потерями
Размер потока : 160 Мбайт (1%)
Заголовок : MVO | Фильм-Экспорт
Язык : Russian
Service kind : Complete Main
Default : Да
Forced : Нет

Аудио #2
Идентификатор : 3
Формат : AC-3
Формат/Информация : Audio Coding 3
Коммерческое название : Dolby Digital
Идентификатор кодека : A_AC3
Продолжительность : 1 ч. 56 м.
Вид битрейта : Постоянный
Битрейт : 640 Кбит/сек
Каналы : 2 канала
Channel layout : L R
Частота : 48,0 КГц
Частота кадров : 31,250 кадров/сек (1536 SPF)
Метод сжатия : С потерями
Размер потока : 535 Мбайт (4%)
Язык : French
Service kind : Complete Main
Default : Нет
Forced : Нет

Текст
Идентификатор : 4
Формат : UTF-8
Идентификатор кодека : S_TEXT/UTF8
Идентификатор кодека/Информация : UTF-8 Plain Text
Продолжительность : 1 ч. 55 м.
Битрейт : 57 бит/сек
Count of elements : 1587
Размер потока : 48,6 Кбайт (0%)
Язык : English
Default : Нет
Forced : Нет

Меню
00:00:00.000 : :ger: 01
00:11:45.625 : :ger: 02
00:18:47.500 : :ger: 03
00:29:16.915 : :ger: 04
00:38:58.791 : :ger: 05
00:48:13.458 : :ger: 06
00:58:10.166 : :ger: 07
01:06:53.083 : :ger: 08
01:18:28.541 : :ger: 09
01:25:00.041 : :ger: 10
01:37:09.582 : :ger: 11
01:47:20.500 : :ger: 12
01:56:44.791 : :ger: 13

   Похожие торренты   Торрент   Размер 
В этой теме нет новых непрочитанных сообщений. Три мушкетера / Les 3 Mousquetaires (1953) BDRip от MegaPeer | P

7 | 4

1.46 ГБ

В этой теме нет новых непрочитанных сообщений. Четыре мушкетера Шарло + Четверо против кардинала / Les quatre Charlots mousquetaires + À nous quatre Cardinal! (1974) WEB-DL 1080p | D, P2

0 | 0

21.95 ГБ

В этой теме нет новых непрочитанных сообщений. Четыре мушкетера Шарло + Четверо против кардинала / Les quatre Charlots mousquetaires + À nous quatre Cardinal! (1974) WEB-DLRip-AVC | D, P2

27 | 6

5.94 ГБ

В этой теме нет новых непрочитанных сообщений. Три мушкетера / D'Artacán y los tres Mosqueperros (2021) BDRip от MegaPeer | D

4 | 0

746.38 МБ

В этой теме нет новых непрочитанных сообщений. Три мушкетера / D'Artacán y los tres Mosqueperros (2021) BDRip от MegaPeer | D

7 | 0

1.41 ГБ

В этой теме нет новых непрочитанных сообщений. Три мушкётера / The Three Musketeers (1993) BDRip-HEVC 1080p от RIPS CLUB | P, P2, A

13 | 0

8.24 ГБ

В этой теме нет новых непрочитанных сообщений. Три мушкетера / D'Artacán y los tres Mosqueperros (2021) BDRip 1080p от ELEKTRI4KA | IVI

15 | 0

6.45 ГБ




Вы не можете начинать темы
Вы не можете отвечать на сообщения
Вы не можете редактировать свои сообщения
Вы не можете удалять свои сообщения
Вы не можете добавлять вложения

Перейти:  
Контактная информация: rstracker[пёсик]yandex.ru
 Вход
ppkBB3cker v.2 © 2008-2014 @ PPK
[ Time : 0.025s | 20 Queries | GZIP : Off ]

cron