img image001 image001 image001 image001 image001 image001 image001 image001 image001 image001 image001 image001 image001 image001 image001

Planets Sun Sun Sun
Статистика раздачи
Автор: PriZraK | Размер: 9.81 ГБ | Добавлен: 23 мар 2022
Раздают: 0    Качают: 0
Скачать торрент
Скачать торрент
Описание торрента

СообщениеДобавлено: 23 мар 2022 

Информация о фильме
Название: Звонок 2
Оригинальное название: The Ring Two
Год выхода: 2005
Жанр: Ужасы, Триллер, Детектив
Режиссер: Хидео Наката
В ролях: Наоми Уоттс, Саймон Бейкер, Дэвид Дорфман, Элизабет Перкинс, Гэри Коул, Сисси Спейсек, Райан Мерриман, Эмили ВанКэмп, Дейви Чейз

О фильме:
Чтобы избавиться от кошмарных воспоминаний и начать новую жизнь, Рейчел с сыном переезжают в маленький городок в штате Орегон. Но, когда совершается убийство и на месте преступления обнаруживают загадочную, не подписанную видеокассету, Рейчел понимает, что мстительная Самара вернулась и решительнее, чем прежде намерена продолжить свой безжалостный террор. В отчаянной борьбе за жизнь, свою и сына, Рейчел вновь должна противостоять Самаре.



Страна: США
Студия: BenderSpink, DreamWorks SKG, MacDonald/Parkes Productions
Продолжительность: 01:49:30
Перевод: Дублированный, Профессиональный двухголосый закадровый, Авторский одноголосый

Файл
Кодек: HEVC (h.265)
Качество: BDRip-HEVC 1080p
Видео: 1920x1080, ~8341 Кбит/сек, HEVC, 10 бит
Звук:
Аудио1: AC3, 6 ch, 384 Kbps - Русский, Дублированный (Пифагор)
Аудио2: AC3, 6 ch, 448 Kbps - Русский, Профессиональный двухголосый закадровый (Tycoon-Studio)
Аудио3: AC3, 6 ch, 448 Kbps - Русский, Авторский одноголосый (Ю. Немахов)
Аудио4: AC3, 6 ch, 448 Kbps - Русский, Авторский одноголосый (А. Дольский)
Аудио5: AC3, 6 ch, 448 Kbps - Русский, Авторский одноголосый (Е. Рудой)
Аудио6: AC3, 6 ch, 448 Kbps - Русский, Авторский одноголосый (А. Карповский)
Аудио7: AC3, 6 ch, 640 Kbps - Русский, Любительский одноголосый закадровый (Неизвестный - из дуэта "Чип и Дейл)
Аудио8: AC3, 2 ch, 192 Kbps - Украинский, Профессиональный двухголосый закадровый (1+1)
Аудио9: AC3, 2 ch, 192 Kbps - Украинский, Профессиональный двухголосый закадровый (Zoom)
Аудио10: AC3, 2 ch, 192 Kbps - Украинский, Профессиональный двухголосый закадровый (Новий канал)
Аудио11: AC3, 6 ch, 640 Kbps - Английский, Оригинал
Субтитры: русские (форс., полные), украинские (форс.), английские (полные, SDH)

Семпл

x265 [info]: frame I: 1343, Avg QP:17.29 kb/s: 22533.94
x265 [info]: frame P: 27802, Avg QP:18.48 kb/s: 13719.19
x265 [info]: frame B: 128400, Avg QP:21.43 kb/s: 7027.19
x265 [info]: Weighted P-Frames: Y:10.2% UV:7.8%
x265 [info]: Weighted B-Frames: Y:8.2% UV:5.9%
x265 [info]: consecutive B-frames: 6.6% 2.4% 4.7% 13.6% 11.4% 48.8% 5.2% 2.9% 1.2% 0.7% 0.6% 1.1% 0.2% 0.1% 0.2% 0.1% 0.3%

encoded 157545 frames in 277163.26s (0.57 fps), 8340.32 kb/s, Avg QP:20.87
General
Unique ID : 108066593492916781529570831949023608900 (0x514CDE6C4585F01CECD414CB63C30044)
Complete name : The Ring Two (2005) [Theatrical Cut] BDRip 1080p H.265 [7xRUS_3xUKR_ENG] [RIPS-CLUB].mkv
Format : Matroska
Format version : Version 4
File size : 9.81 GiB
Duration : 1 h 49 min
Overall bit rate : 12.8 Mb/s
Movie name : Звонок 2 / Дзвінок 2 / The Ring Two (2005)
Encoded date : UTC 2022-01-01 09:14:39
Writing application : mkvmerge v64.0.0 ('Willows') 64-bit
Writing library : libebml v1.4.2 + libmatroska v1.6.4
Cover : Yes
Attachments : Cover.jpg

Video
ID : 1
Format : HEVC
Format/Info : High Efficiency Video Coding
Format profile : Main 10@L4.1@High
Codec ID : V_MPEGH/ISO/HEVC
Duration : 1 h 49 min
Bit rate : 8 341 kb/s
Width : 1 920 pixels
Height : 1 080 pixels
Display aspect ratio : 16:9
Frame rate mode : Constant
Frame rate : 23.976 (24000/1001) FPS
Color space : YUV
Chroma subsampling : 4:2:0
Bit depth : 10 bits
Bits/(Pixel*Frame) : 0.168
Stream size : 6.38 GiB (65%)
Title : Звонок 2 / Дзвінок 2 / The Ring Two (2005)
Writing library : x265 3.5+1-ce882936d:[Windows][GCC 10.2.0][64 bit] 10bit
Encoding settings : cpuid=1111039 / frame-threads=3 / numa-pools=12 / wpp / no-pmode / no-pme / no-psnr / no-ssim / log-level=2 / input-csp=1 / input-res=1920x1080 / interlace=0 / total-frames=157545 / level-idc=41 / high-tier=1 / uhd-bd=0 / ref=5 / no-allow-non-conformance / no-repeat-headers / annexb / no-aud / no-hrd / info / hash=0 / no-temporal-layers / open-gop / min-keyint=23 / keyint=240 / gop-lookahead=0 / bframes=16 / b-adapt=2 / b-pyramid / bframe-bias=0 / rc-lookahead=60 / lookahead-slices=4 / scenecut=40 / hist-scenecut=0 / radl=0 / no-splice / no-intra-refresh / ctu=32 / min-cu-size=8 / rect / amp / max-tu-size=32 / tu-inter-depth=4 / tu-intra-depth=4 / limit-tu=1 / rdoq-level=2 / dynamic-rd=0.00 / no-ssim-rd / signhide / no-tskip / nr-intra=0 / nr-inter=0 / no-constrained-intra / no-strong-intra-smoothing / max-merge=5 / limit-refs=2 / limit-modes / me=3 / subme=7 / merange=57 / temporal-mvp / no-frame-dup / no-hme / weightp / weightb / no-analyze-src-pics / deblock=-3:-3 / no-sao / no-sao-non-deblock / rd=6 / selective-sao=0 / no-early-skip / no-rskip / no-fast-intra / no-tskip-fast / no-cu-lossless / no-b-intra / no-splitrd-skip / rdpenalty=0 / psy-rd=2.00 / psy-rdoq=1.00 / no-rd-refine / no-lossless / cbqpoffs=0 / crqpoffs=0 / rc=crf / crf=21.0 / qcomp=0.60 / qpstep=4 / stats-write=0 / stats-read=0 / vbv-maxrate=50000 / vbv-bufsize=50000 / vbv-init=0.9 / min-vbv-fullness=50.0 / max-vbv-fullness=80.0 / crf-max=0.0 / crf-min=0.0 / ipratio=1.40 / pbratio=1.30 / aq-mode=1 / aq-strength=1.00 / no-cutree / zone-count=0 / no-strict-cbr / qg-size=32 / no-rc-grain / qpmax=69 / qpmin=0 / no-const-vbv / sar=1 / overscan=0 / videoformat=5 / range=0 / colorprim=2 / transfer=2 / colormatrix=2 / chromaloc=0 / display-window=0 / cll=0,0 / min-luma=0 / max-luma=1023 / log2-max-poc-lsb=8 / vui-timing-info / vui-hrd-info / slices=1 / no-opt-qp-pps / no-opt-ref-list-length-pps / no-multi-pass-opt-rps / scenecut-bias=0.05 / hist-threshold=0.03 / no-opt-cu-delta-qp / no-aq-motion / no-hdr10 / no-hdr10-opt / no-dhdr10-opt / no-idr-recovery-sei / analysis-reuse-level=0 / analysis-save-reuse-level=0 / analysis-load-reuse-level=0 / scale-factor=0 / refine-intra=0 / refine-inter=0 / refine-mv=1 / refine-ctu-distortion=0 / no-limit-sao / ctu-info=0 / no-lowpass-dct / refine-analysis-type=0 / copy-pic=1 / max-ausize-factor=1.0 / no-dynamic-refine / no-single-sei / no-hevc-aq / no-svt / no-field / qp-adaptation-range=1.00 / scenecut-aware-qp=0conformance-window-offsets / right=0 / bottom=0 / decoder-max-rate=0 / no-vbv-live-multi-pass
Language : English
Default : Yes
Forced : Yes

Audio #1
ID : 2
Format : AC-3
Format/Info : Audio Coding 3
Commercial name : Dolby Digital
Codec ID : A_AC3
Duration : 1 h 49 min
Bit rate mode : Constant
Bit rate : 384 kb/s
Channel(s) : 6 channels
Channel layout : L R C LFE Ls Rs
Sampling rate : 48.0 kHz
Frame rate : 31.250 FPS (1536 SPF)
Bit depth : 16 bits
Compression mode : Lossy
Stream size : 301 MiB (3%)
Title : AC-3 / 5.1 Ch / 384 kbps / DUB / Пифагор
Language : Russian
Service kind : Complete Main
Default : Yes
Forced : Yes

Audio #2
ID : 3
Format : AC-3
Format/Info : Audio Coding 3
Commercial name : Dolby Digital
Codec ID : A_AC3
Duration : 1 h 49 min
Bit rate mode : Constant
Bit rate : 448 kb/s
Channel(s) : 6 channels
Channel layout : L R C LFE Ls Rs
Sampling rate : 48.0 kHz
Frame rate : 31.250 FPS (1536 SPF)
Bit depth : 16 bits
Compression mode : Lossy
Stream size : 351 MiB (3%)
Title : AC-3 / 5.1 Ch / 448 kbps / DVO / Tycoon-Studio
Language : Russian
Service kind : Complete Main
Default : No
Forced : No

Audio #3
ID : 4
Format : AC-3
Format/Info : Audio Coding 3
Commercial name : Dolby Digital
Codec ID : A_AC3
Duration : 1 h 49 min
Bit rate mode : Constant
Bit rate : 448 kb/s
Channel(s) : 6 channels
Channel layout : L R C LFE Ls Rs
Sampling rate : 48.0 kHz
Frame rate : 31.250 FPS (1536 SPF)
Bit depth : 16 bits
Compression mode : Lossy
Stream size : 351 MiB (3%)
Title : AC-3 / 5.1 Ch / 448 kbps / AVO / Ю. Немахов
Language : Russian
Service kind : Complete Main
Default : No
Forced : No

Audio #4
ID : 5
Format : AC-3
Format/Info : Audio Coding 3
Commercial name : Dolby Digital
Codec ID : A_AC3
Duration : 1 h 49 min
Bit rate mode : Constant
Bit rate : 448 kb/s
Channel(s) : 6 channels
Channel layout : L R C LFE Ls Rs
Sampling rate : 48.0 kHz
Frame rate : 31.250 FPS (1536 SPF)
Bit depth : 16 bits
Compression mode : Lossy
Stream size : 351 MiB (3%)
Title : AC-3 / 5.1 Ch / 448 kbps / AVO / А. Дольский
Language : Russian
Service kind : Complete Main
Default : No
Forced : No

Audio #5
ID : 6
Format : AC-3
Format/Info : Audio Coding 3
Commercial name : Dolby Digital
Codec ID : A_AC3
Duration : 1 h 49 min
Bit rate mode : Constant
Bit rate : 448 kb/s
Channel(s) : 6 channels
Channel layout : L R C LFE Ls Rs
Sampling rate : 48.0 kHz
Frame rate : 31.250 FPS (1536 SPF)
Bit depth : 16 bits
Compression mode : Lossy
Stream size : 351 MiB (3%)
Title : AC-3 / 5.1 Ch / 448 kbps / AVO / Е. Рудой
Language : Russian
Service kind : Complete Main
Default : No
Forced : No

Audio #6
ID : 7
Format : AC-3
Format/Info : Audio Coding 3
Commercial name : Dolby Digital
Codec ID : A_AC3
Duration : 1 h 49 min
Bit rate mode : Constant
Bit rate : 448 kb/s
Channel(s) : 6 channels
Channel layout : L R C LFE Ls Rs
Sampling rate : 48.0 kHz
Frame rate : 31.250 FPS (1536 SPF)
Bit depth : 16 bits
Compression mode : Lossy
Stream size : 351 MiB (3%)
Title : AC-3 / 5.1 Ch / 448 kbps / AVO / А. Карповский
Language : Russian
Service kind : Complete Main
Default : No
Forced : No

Audio #7
ID : 8
Format : AC-3
Format/Info : Audio Coding 3
Commercial name : Dolby Digital
Codec ID : A_AC3
Duration : 1 h 49 min
Bit rate mode : Constant
Bit rate : 640 kb/s
Channel(s) : 6 channels
Channel layout : L R C LFE Ls Rs
Sampling rate : 48.0 kHz
Frame rate : 31.250 FPS (1536 SPF)
Compression mode : Lossy
Stream size : 501 MiB (5%)
Title : AC-3 / 5.1 Ch / 640 kbps / VO / Неизвестный (из дуэта "Чип и Дейл)
Language : Russian
Service kind : Complete Main
Default : No
Forced : No

Audio #8
ID : 9
Format : AC-3
Format/Info : Audio Coding 3
Commercial name : Dolby Digital
Codec ID : A_AC3
Duration : 1 h 49 min
Bit rate mode : Constant
Bit rate : 192 kb/s
Channel(s) : 2 channels
Channel layout : L R
Sampling rate : 48.0 kHz
Frame rate : 31.250 FPS (1536 SPF)
Compression mode : Lossy
Stream size : 150 MiB (1%)
Title : AC-3 / 2.0 Ch / 192 kbps / DVO / 1+1
Language : Ukrainian
Service kind : Complete Main
Default : No
Forced : No

Audio #9
ID : 10
Format : AC-3
Format/Info : Audio Coding 3
Commercial name : Dolby Digital
Codec ID : A_AC3
Duration : 1 h 49 min
Bit rate mode : Constant
Bit rate : 192 kb/s
Channel(s) : 2 channels
Channel layout : L R
Sampling rate : 48.0 kHz
Frame rate : 31.250 FPS (1536 SPF)
Bit depth : 32 bits
Compression mode : Lossy
Stream size : 150 MiB (1%)
Title : AC-3 / 2.0 Ch / 192 kbps / DVO / Zoom
Language : Ukrainian
Service kind : Complete Main
Default : No
Forced : No

Audio #10
ID : 11
Format : AC-3
Format/Info : Audio Coding 3
Commercial name : Dolby Digital
Codec ID : A_AC3
Duration : 1 h 49 min
Bit rate mode : Constant
Bit rate : 192 kb/s
Channel(s) : 2 channels
Channel layout : L R
Sampling rate : 48.0 kHz
Frame rate : 31.250 FPS (1536 SPF)
Bit depth : 32 bits
Compression mode : Lossy
Stream size : 150 MiB (1%)
Title : AC-3 / 2.0 Ch / 192 kbps / DVO / Новий канал
Language : Ukrainian
Service kind : Complete Main
Default : No
Forced : No

Audio #11
ID : 12
Format : AC-3
Format/Info : Audio Coding 3
Commercial name : Dolby Digital
Codec ID : A_AC3
Duration : 1 h 49 min
Bit rate mode : Constant
Bit rate : 640 kb/s
Channel(s) : 6 channels
Channel layout : L R C LFE Ls Rs
Sampling rate : 48.0 kHz
Frame rate : 31.250 FPS (1536 SPF)
Bit depth : 16 bits
Compression mode : Lossy
Stream size : 501 MiB (5%)
Title : AC-3 / 5.1 Ch / 640 kbps / Original
Language : English
Service kind : Complete Main
Default : No
Forced : No

Text #1
ID : 13
Format : UTF-8
Codec ID : S_TEXT/UTF8
Codec ID/Info : UTF-8 Plain Text
Duration : 1 h 33 min
Bit rate : 1 b/s
Count of elements : 18
Stream size : 741 Bytes (0%)
Title : Forced
Language : Russian
Default : Yes
Forced : Yes

Text #2
ID : 14
Format : UTF-8
Codec ID : S_TEXT/UTF8
Codec ID/Info : UTF-8 Plain Text
Duration : 1 h 42 min
Bit rate : 53 b/s
Count of elements : 750
Stream size : 39.7 KiB (0%)
Title : Full
Language : Russian
Default : No
Forced : No

Text #3
ID : 15
Format : UTF-8
Codec ID : S_TEXT/UTF8
Codec ID/Info : UTF-8 Plain Text
Duration : 1 h 33 min
Bit rate : 1 b/s
Count of elements : 18
Stream size : 736 Bytes (0%)
Title : Forced
Language : Ukrainian
Default : No
Forced : No

Text #4
ID : 16
Format : UTF-8
Codec ID : S_TEXT/UTF8
Codec ID/Info : UTF-8 Plain Text
Duration : 1 h 40 min
Bit rate : 29 b/s
Count of elements : 734
Stream size : 21.7 KiB (0%)
Title : Full
Language : English
Default : No
Forced : No

Text #5
ID : 17
Format : UTF-8
Codec ID : S_TEXT/UTF8
Codec ID/Info : UTF-8 Plain Text
Duration : 1 h 42 min
Bit rate : 33 b/s
Count of elements : 922
Stream size : 25.1 KiB (0%)
Title : SDH
Language : English
Default : No
Forced : No

Menu
00:00:00.000 : en:Chapter 01
00:07:10.639 : en:Chapter 02
00:10:38.680 : en:Chapter 03
00:12:45.473 : en:Chapter 04
00:15:53.870 : en:Chapter 05
00:20:43.784 : en:Chapter 06
00:25:14.263 : en:Chapter 07
00:31:01.943 : en:Chapter 08
00:34:16.346 : en:Chapter 09
00:40:04.736 : en:Chapter 10
00:48:53.013 : en:Chapter 11
00:56:22.796 : en:Chapter 12
01:04:31.910 : en:Chapter 13
01:08:40.700 : en:Chapter 14
01:16:31.462 : en:Chapter 15
01:24:02.329 : en:Chapter 16
01:28:40.106 : en:Chapter 17
01:33:11.169 : en:Chapter 18
01:38:56.222 : en:Chapter 19
01:43:06.347 : en:Chapter 20


Релиз от: -Star-Lord-

   Похожие торренты   Торрент   Размер 
В этой теме нет новых непрочитанных сообщений. Звонок / The Ring (2002) BDRip-HEVC 1080p от RIPS CLUB | D, P, P2, A

0 | 0

8.69 ГБ

В этой теме нет новых непрочитанных сообщений. Форсаж 6 / Furious 6 (2013) BDRip-HEVC 1080p от RIPS CLUB | D | Theatrical Cut

0 | 6

8.41 ГБ

В этой теме нет новых непрочитанных сообщений. Солт / Salt (2010) BDRip-HEVC 1080p от RIPS CLUB | D, A | Theatrical Cut

0 | 0

8.38 ГБ

В этой теме нет новых непрочитанных сообщений. Форсаж 9 / F9 (2021) BDRip-HEVC 1080p от RIPS CLUB | D | Theatrical Cut | iTunes

31 | 0

9.51 ГБ

В этой теме нет новых непрочитанных сообщений. 3 дня на убийство / 3 Days to Kill (2014) BDRip-HEVC 1080p от RIPS CLUB | D | Theatrical Cut

5 | 0

6.39 ГБ

В этой теме нет новых непрочитанных сообщений. Чужие / Aliens (1986) BDRip-HEVC 1080p от RIPS CLUB | D, P, A, L1 | Theatrical Cut | Fundamental Collection

57 | 8

16.04 ГБ

В этой теме нет новых непрочитанных сообщений. Дюна / Dune (1984) UHD BDRip-HEVC 1080p от RIPS CLUB | HDR | P | Theatrical Cut

0 | 0

9.1 ГБ




Вы не можете начинать темы
Вы не можете отвечать на сообщения
Вы не можете редактировать свои сообщения
Вы не можете удалять свои сообщения
Вы не можете добавлять вложения

Перейти:  
Контактная информация: rstracker[пёсик]yandex.ru
 Вход
ppkBB3cker v.2 © 2008-2014 @ PPK
[ Time : 0.027s | 20 Queries | GZIP : Off ]

cron