img image001 image001 image001 image001 image001 image001 image001 image001 image001 image001 image001 image001 image001 image001 image001

Planets Sun Sun Sun
Статистика раздачи
Автор: PriZraK | Размер: 124.95 ГБ | Добавлен: 23 мар 2022
Раздают: 0    Качают: 0
Скачать торрент
Скачать торрент
Описание торрента

СообщениеДобавлено: 23 мар 2022 

[center][/center]
[spoiler="Гарри Поттер и философский камень / Harry Potter and the Sorcerer's Stone (2001)"]
[imgright]https://i.postimg.cc/1Xtn2q7k/1.png[/imgright]
[font=georgia][center][color=#BF0000]Гарри Поттер
и философский камень [/color]
[color=#004080]Harry Potter
and the Sorcerer's Stone [/color][/center] [/font]
[b]Год выпуска[/b]: 2001
[b]Страна[/b]: Великобритания, США
[b]Жанр[/b]: Фэнтези, приключения, семейный
[b]Продолжительность[/b]:02:32:21
[b]Перевод[/b]: Дубляж, многоголосый закадровый, двухголосый закадровый, авторский

[b]Режиссер[/b]: Крис Коламбус / Chris Columbus
[b]В ролях[/b]: Дэниэл Рэдклифф, Руперт Гринт, Эмма Уотсон, Ричард Харрис, Алан Рикман, Мэгги Смит, Робби Колтрейн

[b]Описание[/b]: Жизнь десятилетнего Гарри Поттера нельзя назвать сладкой: его родители умерли, едва ему исполнился год, а от дяди и тётки, взявших сироту на воспитание, достаются лишь тычки да подзатыльники. Но в одиннадцатый день рождения Гарри всё меняется. Странный гость, неожиданно появившийся на пороге, приносит письмо, из которого мальчик узнаёт, что на самом деле он волшебник и принят в Хогвартс — школу магии. А уже через пару недель Гарри будет мчаться в поезде Хогвартс-экспресс навстречу новой жизни, где его ждут невероятные приключения, верные друзья и самое главное — ключ к разгадке тайны смерти его родителей.

[url=http://www.kinopoisk.ru/film/689/][img]http://www.kinopoisk.ru/rating/689.gif[/img][/url]

[b]Кодек[/b]: H264
[b]Качество[/b]: BDRip 1080p
[b]Видео[/b]: MPEG-4 AVC, 1920x796, 12000 Кбит/с, 23.976 fps
[b]Аудио 1[/b]: Русский, AC3, 6 ch, 640 Кбит/с [b]Дубляж, Blu-ray CEE[/b]
[b]Аудио 2[/b]: Русский, AC3, 6 ch, 448 Кбит/с [b]Многоголосый закадровый, Карусель[/b]
[b]Аудио 3[/b]: Русский, AC3, 6 ch, 448 Кбит/с [b]Многоголосый закадровый, С.Р.И.[/b]
[b]Аудио 4[/b]: Русский, AC3, 6 ch, 640 Кбит/с [b]Двухголосый закадровый, П.Гланц, И. Королёва[/b]
[b]Аудио 5[/b]: Русский, AC3, 2 ch, 256 Кбит/с Двухголосый закадровый, SDI Media (2012 г.)
[b]Аудио 6[/b]: Русский, AC3, 2 ch, 256 Кбит/с [b]Двухголосый закадровый, С. Визгунов и Н.Гвамичава (~2002/2003 г.)[/b]
[b]Аудио 7[/b]: Русский, AC3, 2 ch, 256 Кбит/с [b]Одноголосый закадровый, С. Визгунов #1[/b]
[b]Аудио 8[/b]: Русский, AC3, 2 ch, 256 Кбит/с [b]Одноголосый закадровый, С. Визгунов #2[/b]
[b]Аудио 9[/b]: Русский, AC3, 2 ch, 256 Кбит/с [b]Одноголосый закадровый, С. Визгунов #3[/b]
[b]Аудио 10[/b]: Русский, AC3, 2 ch, 256 Кбит/с [b]Одноголосый закадровый, А. Дольский[/b]
[b]Аудио 11[/b]: Русский, AC3, 6 ch, 640 Кбит/с [b]Одноголосый закадровый, С. Рябов[/b]
[b]Аудио 12[/b]: Английский, AC3, 6 ch, 448 Кбит/с [b]Оригинал[/b]
[b]Субтитры[/b]: Русские, английские
[b]Главы[/b]: Есть
[spoiler="Инфо файл"]
x264 [info]: frame I:1494 Avg QP:15.88 size:168436
x264 [info]: frame P:51020 Avg QP:17.31 size:100613
x264 [info]: frame B:166667 Avg QP:19.15 size: 49933
Общее
Уникальный идентификатор : 181229410066509519457614067807324018857 (0x885783C7A4CF2F2CB92C81E0687118A9)
Полное имя : I:Гарри Поттер Коллекция1 Гарри Поттер и филосовский камень 2001г.mkv
Формат : Matroska
Версия формата : Version 2
Размер файла : 17,9 Гбайт
Продолжительность : 2 ч. 32 м.
Общий поток : 16,8 Мбит/сек
Название фильма : mister.hats
Дата кодирования : UTC 2021-02-09 02:02:09
Программа кодирования : mkvmerge v5.8.0 ('No Sleep / Pillow') built on Sep 2 2012 15:37:04
Библиотека кодирования : libebml v1.2.3 + libmatroska v1.3.0

Видео
Идентификатор : 1
Формат : AVC
Формат/Информация : Advanced Video Codec
Профиль формата : High@L4.1
Настройки формата : CABAC / 5 Ref Frames
Параметр CABAC формата : Да
Параметр RefFrames формата : 5 кадров
Идентификатор кодека : V_MPEG4/ISO/AVC
Продолжительность : 2 ч. 32 м.
Битрейт : 12,0 Мбит/сек
Ширина : 1920 пикселей
Высота : 796 пикселей
Соотношение сторон : 2,40:1
Режим частоты кадров : Постоянный
Частота кадров : 23,976 (24000/1001) кадра/сек
Цветовое пространство : YUV
Субдискретизация насыщенности : 4:2:0
Битовая глубина : 8 бит
Тип развёртки : Прогрессивная
Бит/(Пиксели*Кадры) : 0.327
Размер потока : 12,4 Гбайт (69%)
Библиотека кодирования : x264 core 152 r2851kMod ba24899
Настройки программы : cabac=1 / ref=5 / deblock=1:-3:-3 / analyse=0x3:0x113 / me=umh / subme=11 / psy=1 / fade_compensate=0.00 / psy_rd=0.97:0.00 / mixed_ref=1 / me_range=48 / chroma_me=1 / trellis=2 / 8x8dct=1 / cqm=0 / deadzone=21,11 / fast_pskip=0 / chroma_qp_offset=-2 / threads=12 / lookahead_threads=3 / sliced_threads=0 / nr=0 / decimate=0 / interlaced=0 / bluray_compat=0 / constrained_intra=0 / bframes=12 / b_pyramid=2 / b_adapt=2 / b_bias=0 / direct=3 / weightb=1 / open_gop=0 / weightp=2 / keyint=240 / keyint_min=23 / scenecut=40 / intra_refresh=0 / rc_lookahead=40 / rc=2pass / mbtree=0 / bitrate=12000 / ratetol=1.0 / qcomp=0.60 / qpmin=0 / qpmax=39 / qpstep=4 / cplxblur=20.0 / qblur=0.5 / vbv_maxrate=50000 / vbv_bufsize=62500 / nal_hrd=none / filler=0 / ip_ratio=1.25 / pb_ratio=1.30 / aq=1:0.90
Язык : English
Default : Да
Forced : Нет
Цветовой диапазон : Limited
Основные цвета : BT.709
Характеристики трансфера : BT.709
Коэффициенты матрицы : BT.709

Аудио #1
Идентификатор : 2
Формат : AC-3
Формат/Информация : Audio Coding 3
Параметр Endianness формата : Big
Идентификатор кодека : A_AC3
Продолжительность : 2 ч. 32 м.
Вид битрейта : Постоянный
Битрейт : 640 Кбит/сек
Каналы : 6 каналов
Расположение каналов : Front: L C R, Side: L R, LFE
Частота : 48,0 КГц
Частота кадров : 31,250 кадров/сек (1536 SPF)
Битовая глубина : 16 бит
Метод сжатия : С потерями
Размер потока : 697 Мбайт (4%)
Заголовок : Дубляж, Blu-ray CEE
Язык : Russian
Default : Да
Forced : Нет

Аудио #2
Идентификатор : 3
Формат : AC-3
Формат/Информация : Audio Coding 3
Параметр Endianness формата : Big
Идентификатор кодека : A_AC3
Продолжительность : 2 ч. 32 м.
Вид битрейта : Постоянный
Битрейт : 448 Кбит/сек
Каналы : 6 каналов
Расположение каналов : Front: L C R, Side: L R, LFE
Частота : 48,0 КГц
Частота кадров : 31,250 кадров/сек (1536 SPF)
Битовая глубина : 16 бит
Метод сжатия : С потерями
Размер потока : 488 Мбайт (3%)
Заголовок : Многоголосый закадровый, Карусель
Язык : Russian
Default : Нет
Forced : Нет

Аудио #3
Идентификатор : 4
Формат : AC-3
Формат/Информация : Audio Coding 3
Параметр Endianness формата : Big
Идентификатор кодека : A_AC3
Продолжительность : 2 ч. 32 м.
Вид битрейта : Постоянный
Битрейт : 448 Кбит/сек
Каналы : 6 каналов
Расположение каналов : Front: L C R, Side: L R, LFE
Частота : 48,0 КГц
Частота кадров : 31,250 кадров/сек (1536 SPF)
Битовая глубина : 16 бит
Метод сжатия : С потерями
Размер потока : 488 Мбайт (3%)
Заголовок : Многоголосый закадровый, С.Р.И.
Язык : Russian
Default : Нет
Forced : Нет

Аудио #4
Идентификатор : 5
Формат : AC-3
Формат/Информация : Audio Coding 3
Параметр Endianness формата : Big
Идентификатор кодека : A_AC3
Продолжительность : 2 ч. 32 м.
Вид битрейта : Постоянный
Битрейт : 640 Кбит/сек
Каналы : 6 каналов
Расположение каналов : Front: L C R, Side: L R, LFE
Частота : 48,0 КГц
Частота кадров : 31,250 кадров/сек (1536 SPF)
Битовая глубина : 16 бит
Метод сжатия : С потерями
Размер потока : 697 Мбайт (4%)
Заголовок : Двухголосый закадровый, П.Гланц, И. Королёва
Язык : Russian
Default : Нет
Forced : Нет

Аудио #5
Идентификатор : 6
Формат : AC-3
Формат/Информация : Audio Coding 3
Параметр Endianness формата : Big
Идентификатор кодека : A_AC3
Продолжительность : 2 ч. 32 м.
Вид битрейта : Постоянный
Битрейт : 256 Кбит/сек
Каналы : 2 канала
Расположение каналов : Front: L R
Частота : 48,0 КГц
Частота кадров : 31,250 кадров/сек (1536 SPF)
Битовая глубина : 16 бит
Метод сжатия : С потерями
Размер потока : 279 Мбайт (2%)
Заголовок : Двухголосый закадровый, SDI Media (2012 г.)
Язык : Russian
Default : Нет
Forced : Нет

Аудио #6
Идентификатор : 7
Формат : AC-3
Формат/Информация : Audio Coding 3
Параметр Endianness формата : Big
Идентификатор кодека : A_AC3
Продолжительность : 2 ч. 32 м.
Вид битрейта : Постоянный
Битрейт : 256 Кбит/сек
Каналы : 2 канала
Расположение каналов : Front: L R
Частота : 48,0 КГц
Частота кадров : 31,250 кадров/сек (1536 SPF)
Битовая глубина : 16 бит
Метод сжатия : С потерями
Размер потока : 279 Мбайт (2%)
Заголовок : С. Визгунов и Гвамичава (~2002/2003 г.)
Язык : Russian
Default : Нет
Forced : Нет

Аудио #7
Идентификатор : 8
Формат : AC-3
Формат/Информация : Audio Coding 3
Параметр Endianness формата : Big
Идентификатор кодека : A_AC3
Продолжительность : 2 ч. 32 м.
Вид битрейта : Постоянный
Битрейт : 256 Кбит/сек
Каналы : 2 канала
Расположение каналов : Front: L R
Частота : 48,0 КГц
Частота кадров : 31,250 кадров/сек (1536 SPF)
Битовая глубина : 16 бит
Метод сжатия : С потерями
Размер потока : 279 Мбайт (2%)
Заголовок : Одноголосый закадровый, С. Визгунов #1
Язык : Russian
Default : Нет
Forced : Нет

Аудио #8
Идентификатор : 9
Формат : AC-3
Формат/Информация : Audio Coding 3
Параметр Endianness формата : Big
Идентификатор кодека : A_AC3
Продолжительность : 2 ч. 32 м.
Вид битрейта : Постоянный
Битрейт : 256 Кбит/сек
Каналы : 2 канала
Расположение каналов : Front: L R
Частота : 48,0 КГц
Частота кадров : 31,250 кадров/сек (1536 SPF)
Битовая глубина : 16 бит
Метод сжатия : С потерями
Размер потока : 279 Мбайт (2%)
Заголовок : Одноголосый закадровый, С. Визгунов #2
Язык : Russian
Default : Нет
Forced : Нет

Аудио #9
Идентификатор : 10
Формат : AC-3
Формат/Информация : Audio Coding 3
Параметр Endianness формата : Big
Идентификатор кодека : A_AC3
Продолжительность : 2 ч. 32 м.
Вид битрейта : Постоянный
Битрейт : 256 Кбит/сек
Каналы : 2 канала
Расположение каналов : Front: L R
Частота : 48,0 КГц
Частота кадров : 31,250 кадров/сек (1536 SPF)
Битовая глубина : 16 бит
Метод сжатия : С потерями
Размер потока : 279 Мбайт (2%)
Заголовок : Одноголосый закадровый, С. Визгунов #3
Язык : Russian
Default : Нет
Forced : Нет

Аудио #10
Идентификатор : 11
Формат : AC-3
Формат/Информация : Audio Coding 3
Параметр Endianness формата : Big
Идентификатор кодека : A_AC3
Продолжительность : 2 ч. 32 м.
Вид битрейта : Постоянный
Битрейт : 256 Кбит/сек
Каналы : 2 канала
Расположение каналов : Front: L R
Частота : 48,0 КГц
Частота кадров : 31,250 кадров/сек (1536 SPF)
Битовая глубина : 16 бит
Метод сжатия : С потерями
Размер потока : 279 Мбайт (2%)
Заголовок : Одноголосый закадровый, А. Дольский
Язык : Russian
Default : Нет
Forced : Нет

Аудио #11
Идентификатор : 12
Формат : AC-3
Формат/Информация : Audio Coding 3
Параметр Endianness формата : Big
Идентификатор кодека : A_AC3
Продолжительность : 2 ч. 32 м.
Вид битрейта : Постоянный
Битрейт : 640 Кбит/сек
Каналы : 6 каналов
Расположение каналов : Front: L C R, Side: L R, LFE
Частота : 48,0 КГц
Частота кадров : 31,250 кадров/сек (1536 SPF)
Битовая глубина : 16 бит
Метод сжатия : С потерями
Размер потока : 697 Мбайт (4%)
Заголовок : Одноголосый закадровый, А. Рябов
Язык : Russian
Default : Нет
Forced : Нет

Аудио #12
Идентификатор : 13
Формат : AC-3
Формат/Информация : Audio Coding 3
Параметр Endianness формата : Big
Идентификатор кодека : A_AC3
Продолжительность : 2 ч. 32 м.
Вид битрейта : Постоянный
Битрейт : 448 Кбит/сек
Каналы : 6 каналов
Расположение каналов : Front: L C R, Side: L R, LFE
Частота : 48,0 КГц
Частота кадров : 31,250 кадров/сек (1536 SPF)
Битовая глубина : 16 бит
Метод сжатия : С потерями
Размер потока : 488 Мбайт (3%)
Заголовок : Оригинал
Язык : English
Default : Нет
Forced : Нет

Текст #1
Идентификатор : 14
Формат : UTF-8
Идентификатор кодека : S_TEXT/UTF8
Идентификатор кодека/Информация : UTF-8 Plain Text
Заголовок : Forced
Язык : Russian
Default : Да
Forced : Нет

Текст #2
Идентификатор : 15
Формат : UTF-8
Идентификатор кодека : S_TEXT/UTF8
Идентификатор кодека/Информация : UTF-8 Plain Text
Заголовок : Перевод by Stalk
Язык : Russian
Default : Нет
Forced : Нет

Текст #3
Идентификатор : 16
Формат : UTF-8
Идентификатор кодека : S_TEXT/UTF8
Идентификатор кодека/Информация : UTF-8 Plain Text
Заголовок : DK
Язык : Russian
Default : Нет
Forced : Нет

Текст #4
Идентификатор : 17
Формат : UTF-8
Идентификатор кодека : S_TEXT/UTF8
Идентификатор кодека/Информация : UTF-8 Plain Text
Заголовок : SDH.Media.Grouр
Язык : Russian
Default : Нет
Forced : Нет

Текст #5
Идентификатор : 18
Формат : UTF-8
Идентификатор кодека : S_TEXT/UTF8
Идентификатор кодека/Информация : UTF-8 Plain Text
Заголовок : Full
Язык : English
Default : Нет
Forced : Нет

Текст #6
Идентификатор : 19
Формат : UTF-8
Идентификатор кодека : S_TEXT/UTF8
Идентификатор кодека/Информация : UTF-8 Plain Text
Заголовок : SDH
Язык : English
Default : Нет
Forced : Нет

Меню
00:00:00.000 : en:(01)00:00:00:000
00:04:05.411 : en:(02)00:04:05:411
00:08:11.157 : en:(03)00:08:11:157
00:12:17.403 : en:(04)00:12:17:403
00:18:25.270 : en:(05)00:18:25:270
00:21:43.635 : en:(06)00:21:43:635
00:24:41.646 : en:(07)00:24:41:646
00:28:49.561 : en:(08)00:28:49:561
00:31:05.196 : en:(09)00:31:05:196
00:34:05.543 : en:(10)00:34:05:543
00:37:49.600 : en:(11)00:37:49:600
00:41:29.487 : en:(12)00:41:29:487
00:46:13.437 : en:(13)00:46:13:437
00:50:29.025 : en:(14)00:50:29:025
00:55:04.300 : en:(15)00:55:04:300
01:00:55.652 : en:(16)01:00:55:652
01:03:43.986 : en:(17)01:03:43:986
01:07:48.230 : en:(18)01:07:48:230
01:13:49.258 : en:(19)01:13:49:258
01:20:17.979 : en:(20)01:20:17:979
01:23:54.529 : en:(21)01:23:54:529
01:28:32.473 : en:(22)01:28:32:473
01:31:42.497 : en:(23)01:31:42:497
01:36:42.630 : en:(24)01:36:42:630
01:42:34.815 : en:(25)01:42:34:815
01:49:05.038 : en:(26)01:49:05:038
01:53:21.628 : en:(27)01:53:21:628
01:58:09.749 : en:(28)01:58:09:749
02:03:44.750 : en:(29)02:03:44:750
02:06:56.108 : en:(30)02:06:56:108
02:10:55.347 : en:(31)02:10:55:347
02:14:18.884 : en:(32)02:14:18:884
02:17:29.574 : en:(33)02:17:29:574
02:21:44.662 : en:(34)02:21:44:662
02:24:10.808 : en:(35)02:24:10:808
02:32:21.423 : en:(36)02:32:21:423

[/spoiler] [/spoiler]
[spoiler="Гарри Поттер и тайная комната / Harry Potter and the Chamber of Secrets (2002) Расширенная версия"]
[imgright]https://i.postimg.cc/NGkvPn1v/2.png[/imgright]
[font=georgia][center][color=#BF0000]Гарри Поттер
и тайная комната [/color]
[color=#004080]Harry Potter
and the Chamber of Secrets[/color][/center] [/font]
[b]Год выпуска[/b]: 2002
[b]Страна[/b]: Великобритания, США, Германия
[b]Жанр[/b]: Фэнтези, приключения, семейный
[b]Продолжительность[/b]: 02:54:23
[b]Перевод[/b]: Дубляж, авторский

[b]Режиссер[/b]: Крис Коламбус / Chris Columbus
[b]В ролях[/b]: Дэниел Рэдклифф, Руперт Гринт, Эмма Уотсон, Ричард Харрис, Алан Рикман, Мэгги Смит, Робби Колтрейн

[b]Описание[/b]: Гарри Поттер переходит на второй курс Школы чародейства и волшебства Хогвартс. Эльф Добби предупреждает Гарри об опасности, которая поджидает его там, и просит больше не возвращаться в школу. Юный волшебник не следует совету эльфа и становится свидетелем таинственных событий, разворачивающихся в Хогвартсе. Вскоре Гарри и его друзья узнают о существовании Тайной Комнаты и сталкиваются с новыми приключениями, пытаясь победить темные силы.

[url=http://www.kinopoisk.ru/film/688/][img]http://www.kinopoisk.ru/rating/688.gif[/img][/url]

[b]Кодек[/b]: H264
[b]Качество[/b]: BDRip 1080p
[b]Видео[/b]: MPEG-4 AVC, 1920x800, 13700 Кбит/с, 23.976 fps
[b]Аудио 1[/b]: Русский, AC3, 6 ch, 640 Кбит/с [b]Дубляж, Каро Премьер[/b]
[b]Аудио 2[/b]: Русский, AC3, 6 ch, 640 Кбит/с [b]Одноголосый закадровый, Ю.Сербин[/b]
[b]Аудио 3[/b]: Русский, АС3, 6 ch, 640 Кбит/с [b]Одноголосый закадровый, Л.Володарский[/b]
[b]Аудио 4[/b]: Английский, AC3, 6 ch, 640 Кбит/с [b]Оригинал[/b]
[b]Субтитры[/b]: Русские, английские
[b]Главы[/b]: Есть
[spoiler="Инфо файл"]
x264 [info]: frame I:1831 Avg QP:13.05 size:204071
x264 [info]: frame P:55210 Avg QP:14.76 size:113431
x264 [info]: frame B:193845 Avg QP:16.51 size: 58201
Общее
Уникальный идентификатор : 189654228185152062083013812996773957241 (0x8EAE13620089C4D4A449A51C5E2ACE79)
Полное имя : I:Гарри Поттер Коллекция2 Гарри Поттер и тайная комната 2002г.mkv
Формат : Matroska
Версия формата : Version 2
Размер файла : 19,8 Гбайт
Продолжительность : 2 ч. 54 м.
Общий поток : 16,3 Мбит/сек
Название фильма : mister.hats
Дата кодирования : UTC 2021-02-08 07:36:54
Программа кодирования : mkvmerge v6.5.0 ('Isn't she lovely') built on Oct 20 2013 12:50:05
Библиотека кодирования : libebml v1.3.0 + libmatroska v1.4.1

Видео
Идентификатор : 1
Формат : AVC
Формат/Информация : Advanced Video Codec
Профиль формата : High@L4.1
Настройки формата : CABAC / 5 Ref Frames
Параметр CABAC формата : Да
Параметр RefFrames формата : 5 кадров
Идентификатор кодека : V_MPEG4/ISO/AVC
Продолжительность : 2 ч. 54 м.
Битрейт : 13,7 Мбит/сек
Ширина : 1920 пикселей
Высота : 800 пикселей
Соотношение сторон : 2,40:1
Режим частоты кадров : Постоянный
Частота кадров : 23,976 (24000/1001) кадра/сек
Цветовое пространство : YUV
Субдискретизация насыщенности : 4:2:0
Битовая глубина : 8 бит
Тип развёртки : Прогрессивная
Бит/(Пиксели*Кадры) : 0.372
Размер потока : 16,3 Гбайт (82%)
Библиотека кодирования : x264 core 152 r2851kMod ba24899
Настройки программы : cabac=1 / ref=5 / deblock=1:-2:-2 / analyse=0x3:0x113 / me=umh / subme=11 / psy=1 / fade_compensate=0.00 / psy_rd=1.00:0.00 / mixed_ref=1 / me_range=48 / chroma_me=1 / trellis=2 / 8x8dct=1 / cqm=0 / deadzone=21,11 / fast_pskip=0 / chroma_qp_offset=-2 / threads=12 / lookahead_threads=3 / sliced_threads=0 / nr=0 / decimate=0 / interlaced=0 / bluray_compat=0 / constrained_intra=0 / bframes=12 / b_pyramid=2 / b_adapt=2 / b_bias=0 / direct=3 / weightb=1 / open_gop=0 / weightp=2 / keyint=240 / keyint_min=23 / scenecut=40 / intra_refresh=0 / rc_lookahead=40 / rc=2pass / mbtree=0 / bitrate=13700 / ratetol=1.0 / qcomp=0.60 / qpmin=0 / qpmax=39 / qpstep=4 / cplxblur=20.0 / qblur=0.5 / vbv_maxrate=50000 / vbv_bufsize=62500 / nal_hrd=none / filler=0 / ip_ratio=1.25 / pb_ratio=1.30 / aq=1:0.90
Язык : English
Default : Да
Forced : Нет
Цветовой диапазон : Limited
Основные цвета : BT.709
Характеристики трансфера : BT.709
Коэффициенты матрицы : BT.709

Аудио #1
Идентификатор : 2
Формат : AC-3
Формат/Информация : Audio Coding 3
Параметр Endianness формата : Big
Идентификатор кодека : A_AC3
Продолжительность : 2 ч. 54 м.
Вид битрейта : Постоянный
Битрейт : 640 Кбит/сек
Каналы : 6 каналов
Расположение каналов : Front: L C R, Side: L R, LFE
Частота : 48,0 КГц
Частота кадров : 31,250 кадров/сек (1536 SPF)
Битовая глубина : 16 бит
Метод сжатия : С потерями
Размер потока : 798 Мбайт (4%)
Заголовок : Дубляж, Каро Премьер
Язык : Russian
Default : Да
Forced : Нет

Аудио #2
Идентификатор : 3
Формат : AC-3
Формат/Информация : Audio Coding 3
Параметр Endianness формата : Big
Идентификатор кодека : A_AC3
Продолжительность : 2 ч. 54 м.
Вид битрейта : Постоянный
Битрейт : 640 Кбит/сек
Каналы : 6 каналов
Расположение каналов : Front: L C R, Side: L R, LFE
Частота : 48,0 КГц
Частота кадров : 31,250 кадров/сек (1536 SPF)
Битовая глубина : 16 бит
Метод сжатия : С потерями
Размер потока : 798 Мбайт (4%)
Заголовок : Одноголосый закадровый, Ю.Сербин
Язык : Russian
Default : Нет
Forced : Нет

Аудио #3
Идентификатор : 4
Формат : AC-3
Формат/Информация : Audio Coding 3
Параметр Endianness формата : Big
Идентификатор кодека : A_AC3
Продолжительность : 2 ч. 54 м.
Вид битрейта : Постоянный
Битрейт : 640 Кбит/сек
Каналы : 6 каналов
Расположение каналов : Front: L C R, Side: L R, LFE
Частота : 48,0 КГц
Частота кадров : 31,250 кадров/сек (1536 SPF)
Битовая глубина : 16 бит
Метод сжатия : С потерями
Размер потока : 798 Мбайт (4%)
Заголовок : Одноголосый закадровый, Л.Володарский
Язык : Russian
Default : Нет
Forced : Нет

Аудио #4
Идентификатор : 5
Формат : AC-3
Формат/Информация : Audio Coding 3
Параметр Endianness формата : Big
Идентификатор кодека : A_AC3
Продолжительность : 2 ч. 54 м.
Вид битрейта : Постоянный
Битрейт : 640 Кбит/сек
Каналы : 6 каналов
Расположение каналов : Front: L C R, Side: L R, LFE
Частота : 48,0 КГц
Частота кадров : 31,250 кадров/сек (1536 SPF)
Битовая глубина : 16 бит
Метод сжатия : С потерями
Размер потока : 798 Мбайт (4%)
Заголовок : Оригинал
Язык : English
Default : Нет
Forced : Нет

Текст #1
Идентификатор : 6
Формат : UTF-8
Идентификатор кодека : S_TEXT/UTF8
Идентификатор кодека/Информация : UTF-8 Plain Text
Заголовок : Forced
Язык : Russian
Default : Да
Forced : Нет

Текст #2
Идентификатор : 7
Формат : UTF-8
Идентификатор кодека : S_TEXT/UTF8
Идентификатор кодека/Информация : UTF-8 Plain Text
Язык : Russian
Default : Нет
Forced : Нет

Текст #3
Идентификатор : 8
Формат : UTF-8
Идентификатор кодека : S_TEXT/UTF8
Идентификатор кодека/Информация : UTF-8 Plain Text
Заголовок : Voronine
Язык : Russian
Default : Нет
Forced : Нет

Текст #4
Идентификатор : 9
Формат : UTF-8
Идентификатор кодека : S_TEXT/UTF8
Идентификатор кодека/Информация : UTF-8 Plain Text
Заголовок : Full
Язык : English
Default : Нет
Forced : Нет

Текст #5
Идентификатор : 10
Формат : UTF-8
Идентификатор кодека : S_TEXT/UTF8
Идентификатор кодека/Информация : UTF-8 Plain Text
Заголовок : SDH
Язык : English
Default : Нет
Forced : Нет

Меню
00:00:00.000 : en:(01)00:00:00:000
00:03:00.972 : en:(02)00:03:00:972
00:08:37.014 : en:(03)00:08:37:014
00:11:31.023 : en:(04)00:11:31:023
00:14:48.552 : en:(05)00:14:48:552
00:21:20.068 : en:(06)00:21:20:068
00:25:38.451 : en:(07)00:25:38:451
00:29:31.519 : en:(08)00:29:31:519
00:32:32.240 : en:(09)00:32:32:240
00:35:26.081 : en:(10)00:35:26:081
00:39:50.804 : en:(11)00:39:50:804
00:43:52.545 : en:(12)00:43:52:545
00:48:40.125 : en:(13)00:48:40:125
00:54:08.286 : en:(14)00:54:08:286
00:58:08.275 : en:(15)00:58:08:275
01:04:08.594 : en:(16)01:04:08:594
01:09:25.493 : en:(17)01:09:25:493
01:14:12.738 : en:(18)01:14:12:738
01:20:33.078 : en:(19)01:20:33:078
01:25:59.319 : en:(20)01:25:59:319
01:31:56.886 : en:(21)01:31:56:886
01:36:22.484 : en:(22)01:36:22:484
01:41:54.983 : en:(23)01:41:54:983
01:46:02.814 : en:(24)01:46:02:814
01:50:33.376 : en:(25)01:50:33:376
01:55:39.555 : en:(26)01:55:39:555
02:00:30.471 : en:(27)02:00:30:471
02:04:36.844 : en:(28)02:04:36:844
02:08:55.060 : en:(29)02:08:55:060
02:14:22.136 : en:(30)02:14:22:136
02:17:38.625 : en:(31)02:17:38:625
02:23:01.155 : en:(32)02:23:01:155
02:28:01.288 : en:(33)02:28:01:288
02:31:34.790 : en:(34)02:31:34:790
02:34:49.069 : en:(35)02:34:49:069
02:40:04.299 : en:(36)02:40:04:299
02:45:11.941 : en:(37)02:45:11:941
02:54:23.950 : en:(38)02:54:23:950

[/spoiler] [/spoiler]
[spoiler="Гарри Поттер и узник Азкабана / Harry Potter and the Prisoner of Azkaban (2004)"]
[imgright]https://i.postimg.cc/6Q4Nj5hM/3.png[/imgright]
[font=georgia][center][color=#BF0000]Гарри Поттер
и узник Азкабана[/color]
[color=#004080]Harry Potter
and the Prisoner of Azkaban [/color][/center] [/font]
[b]Год выпуска[/b]: 2004
[b]Страна[/b]: Великобритания, США
[b]Жанр[/b]: Фэнтези, приключения, семейный
[b]Продолжительность[/b]: 02:21:42
[b]Перевод[/b]: Дубляж, многоголосый закадровый, авторский

[b]Режиссер[/b]: Альфонсо Куарон / Alfonso Cuaron
[b]В ролях[/b]: Дэниэл Рэдклифф, Руперт Гринт, Эмма Уотсон, Робби Колтрейн, Том Фелтон, Гари Олдман, Дэвид Тьюлис, Майкл Гэмбон, Ричард Гриффитс, Пэм Феррис

[b]Описание[/b]: В третьей части истории о юном волшебнике полюбившиеся всем герои — Гарри Поттер, Рон и Гермиона — возвращаются уже на третий курс школы чародейства и волшебства Хогвартс. На этот раз они должны раскрыть тайну узника, сбежавшего из зловещей тюрьмы Азкабан, чье пребывание на воле создает для Гарри смертельную опасность.

[url=http://www.kinopoisk.ru/film/322/][img]http://www.kinopoisk.ru/rating/322.gif[/img][/url]

[b]Кодек[/b]: H264
[b]Качество[/b]: BDRip 1080p
[b]Видео[/b]: MPEG-4 AVC, 1920x796 Кбит/с, 12200 Кбит/с, 23.976 fps
[b]Аудио 1[/b]: Русский, AC3, 6 ch, 640 Кбит/с [b]Дубляж, BD EUR[/b]
[b]Аудио 2[/b]: Русский, AC3, 6 ch, 448 Кбит/с [b]Многоголосый закадровый, С.Р.И.[/b]
[b]Аудио 3[/b]: Русский, AC3, 6 ch, 384 Кбит/с [b]Двухголосый закадровый, Tycoon[/b]
[b]Аудио 4[/b]: Русский, AC3, 6 ch, 384 Кбит/с [b]Многоголосый закадровый, Кравец[/b]
[b]Аудио 5[/b]: Русский, AC3, 6 ch, 448 Кбит/с [b]Одноголосый закадровый, Ю.Сербин[/b]
[b]Аудио 6[/b]: Русский, AC3, 6 ch, 448 Кбит/с [b]Одноголосый закадровый, Е. Рудой[/b]
[b]Аудио 7[/b]: Английский, AC3, 6 ch, 640 Кбит/с [b]Оригинал[/b]
[b]Субтитры[/b]: Русские, английские
[b]Главы[/b]: Есть
[spoiler="Инфо файл"]
x264 [info]: frame I:1477 Avg QP:14.58 size:226135
x264 [info]: frame P:55449 Avg QP:16.43 size:103491
x264 [info]: frame B:146922 Avg QP:18.49 size: 46896
Общее
Уникальный идентификатор : 182487248688492132763055745373143091345 (0x8949C403112F9E5ABC2C6C4EB99CC891)
Полное имя : I:Гарри Поттер Коллекция3 Гарри Поттер и узник Азкабана 2004г.mkv
Формат : Matroska
Версия формата : Version 2
Размер файла : 15,4 Гбайт
Продолжительность : 2 ч. 21 м.
Общий поток : 15,6 Мбит/сек
Название фильма : mister.hats
Дата кодирования : UTC 2020-10-16 00:13:09
Программа кодирования : mkvmerge v5.8.0 ('No Sleep / Pillow') built on Sep 2 2012 15:37:04
Библиотека кодирования : libebml v1.2.3 + libmatroska v1.3.0

Видео
Идентификатор : 1
Формат : AVC
Формат/Информация : Advanced Video Codec
Профиль формата : High@L4.1
Настройки формата : CABAC / 5 Ref Frames
Параметр CABAC формата : Да
Параметр RefFrames формата : 5 кадров
Идентификатор кодека : V_MPEG4/ISO/AVC
Продолжительность : 2 ч. 21 м.
Битрейт : 12,2 Мбит/сек
Ширина : 1920 пикселей
Высота : 796 пикселей
Соотношение сторон : 2,40:1
Режим частоты кадров : Постоянный
Частота кадров : 23,976 (24000/1001) кадра/сек
Цветовое пространство : YUV
Субдискретизация насыщенности : 4:2:0
Битовая глубина : 8 бит
Тип развёртки : Прогрессивная
Бит/(Пиксели*Кадры) : 0.333
Размер потока : 11,8 Гбайт (76%)
Библиотека кодирования : x264 core 152 r2851kMod ba24899
Настройки программы : cabac=1 / ref=5 / deblock=1:-2:-2 / analyse=0x3:0x113 / me=umh / subme=11 / psy=1 / fade_compensate=0.00 / psy_rd=1.00:0.00 / mixed_ref=1 / me_range=48 / chroma_me=1 / trellis=2 / 8x8dct=1 / cqm=0 / deadzone=21,11 / fast_pskip=0 / chroma_qp_offset=-2 / threads=12 / lookahead_threads=2 / sliced_threads=0 / nr=0 / decimate=0 / interlaced=0 / bluray_compat=0 / constrained_intra=0 / bframes=9 / b_pyramid=2 / b_adapt=2 / b_bias=0 / direct=3 / weightb=1 / open_gop=0 / weightp=2 / keyint=240 / keyint_min=23 / scenecut=40 / intra_refresh=0 / rc_lookahead=40 / rc=2pass / mbtree=0 / bitrate=12200 / ratetol=1.0 / qcomp=0.60 / qpmin=0 / qpmax=39 / qpstep=4 / cplxblur=20.0 / qblur=0.5 / vbv_maxrate=50000 / vbv_bufsize=62500 / nal_hrd=none / filler=0 / ip_ratio=1.25 / pb_ratio=1.30 / aq=1:0.80
Язык : English
Default : Да
Forced : Нет
Цветовой диапазон : Limited
Основные цвета : BT.709
Характеристики трансфера : BT.709
Коэффициенты матрицы : BT.709

Аудио #1
Идентификатор : 2
Формат : AC-3
Формат/Информация : Audio Coding 3
Параметр Endianness формата : Big
Идентификатор кодека : A_AC3
Продолжительность : 2 ч. 21 м.
Вид битрейта : Постоянный
Битрейт : 640 Кбит/сек
Каналы : 6 каналов
Расположение каналов : Front: L C R, Side: L R, LFE
Частота : 48,0 КГц
Частота кадров : 31,250 кадров/сек (1536 SPF)
Битовая глубина : 16 бит
Метод сжатия : С потерями
Размер потока : 649 Мбайт (4%)
Заголовок : Дубляж, BD EUR
Язык : Russian
Default : Да
Forced : Нет

Аудио #2
Идентификатор : 3
Формат : AC-3
Формат/Информация : Audio Coding 3
Параметр Endianness формата : Big
Идентификатор кодека : A_AC3
Продолжительность : 2 ч. 21 м.
Вид битрейта : Постоянный
Битрейт : 448 Кбит/сек
Каналы : 6 каналов
Расположение каналов : Front: L C R, Side: L R, LFE
Частота : 48,0 КГц
Частота кадров : 31,250 кадров/сек (1536 SPF)
Битовая глубина : 16 бит
Метод сжатия : С потерями
Размер потока : 454 Мбайт (3%)
Заголовок : Многоголосый закадровый, С.Р.И.
Язык : Russian
Default : Нет
Forced : Нет

Аудио #3
Идентификатор : 4
Формат : AC-3
Формат/Информация : Audio Coding 3
Параметр Endianness формата : Big
Идентификатор кодека : A_AC3
Продолжительность : 2 ч. 21 м.
Вид битрейта : Постоянный
Битрейт : 384 Кбит/сек
Каналы : 6 каналов
Расположение каналов : Front: L C R, Side: L R, LFE
Частота : 48,0 КГц
Частота кадров : 31,250 кадров/сек (1536 SPF)
Битовая глубина : 16 бит
Метод сжатия : С потерями
Размер потока : 389 Мбайт (2%)
Заголовок : Двухголосый закадровый, Tycoon
Язык : Russian
Default : Нет
Forced : Нет

Аудио #4
Идентификатор : 5
Формат : AC-3
Формат/Информация : Audio Coding 3
Параметр Endianness формата : Big
Идентификатор кодека : A_AC3
Продолжительность : 2 ч. 21 м.
Вид битрейта : Постоянный
Битрейт : 384 Кбит/сек
Каналы : 6 каналов
Расположение каналов : Front: L C R, Side: L R, LFE
Частота : 48,0 КГц
Частота кадров : 31,250 кадров/сек (1536 SPF)
Битовая глубина : 16 бит
Метод сжатия : С потерями
Размер потока : 389 Мбайт (2%)
Заголовок : Многоголосый закадровый, Кравец
Язык : Russian
Default : Нет
Forced : Нет

Аудио #5
Идентификатор : 6
Формат : AC-3
Формат/Информация : Audio Coding 3
Параметр Endianness формата : Big
Идентификатор кодека : A_AC3
Продолжительность : 2 ч. 21 м.
Вид битрейта : Постоянный
Битрейт : 448 Кбит/сек
Каналы : 6 каналов
Расположение каналов : Front: L C R, Side: L R, LFE
Частота : 48,0 КГц
Частота кадров : 31,250 кадров/сек (1536 SPF)
Битовая глубина : 16 бит
Метод сжатия : С потерями
Размер потока : 454 Мбайт (3%)
Заголовок : Одноголосый закадровый, Ю.Сербин
Язык : Russian
Default : Нет
Forced : Нет

Аудио #6
Идентификатор : 7
Формат : AC-3
Формат/Информация : Audio Coding 3
Параметр Endianness формата : Big
Идентификатор кодека : A_AC3
Продолжительность : 2 ч. 21 м.
Вид битрейта : Постоянный
Битрейт : 448 Кбит/сек
Каналы : 6 каналов
Расположение каналов : Front: L C R, Side: L R, LFE
Частота : 48,0 КГц
Частота кадров : 31,250 кадров/сек (1536 SPF)
Битовая глубина : 16 бит
Метод сжатия : С потерями
Размер потока : 454 Мбайт (3%)
Заголовок : Одноголосый закадровый, Е. Рудой
Язык : Russian
Default : Нет
Forced : Нет

Аудио #7
Идентификатор : 8
Формат : AC-3
Формат/Информация : Audio Coding 3
Параметр Endianness формата : Big
Идентификатор кодека : A_AC3
Продолжительность : 2 ч. 21 м.
Вид битрейта : Постоянный
Битрейт : 640 Кбит/сек
Каналы : 6 каналов
Расположение каналов : Front: L C R, Side: L R, LFE
Частота : 48,0 КГц
Частота кадров : 31,250 кадров/сек (1536 SPF)
Битовая глубина : 16 бит
Метод сжатия : С потерями
Размер потока : 649 Мбайт (4%)
Заголовок : Оригинал
Язык : English
Default : Нет
Forced : Нет

Текст #1
Идентификатор : 9
Формат : UTF-8
Идентификатор кодека : S_TEXT/UTF8
Идентификатор кодека/Информация : UTF-8 Plain Text
Заголовок : captions
Язык : Russian
Default : Да
Forced : Нет

Текст #2
Идентификатор : 10
Формат : UTF-8
Идентификатор кодека : S_TEXT/UTF8
Идентификатор кодека/Информация : UTF-8 Plain Text
Язык : Russian
Default : Нет
Forced : Нет

Текст #3
Идентификатор : 11
Формат : UTF-8
Идентификатор кодека : S_TEXT/UTF8
Идентификатор кодека/Информация : UTF-8 Plain Text
Язык : English
Default : Нет
Forced : Нет

Текст #4
Идентификатор : 12
Формат : UTF-8
Идентификатор кодека : S_TEXT/UTF8
Идентификатор кодека/Информация : UTF-8 Plain Text
Заголовок : SDH
Язык : English
Default : Нет
Forced : Нет

Меню
00:00:00.000 : en:Under Covers Prologue
00:01:40.100 : en:Aunt Marge's Big Mistake
00:06:36.229 : en:The Knight Bus
00:12:45.931 : en:The Leaky Cauldron
00:14:52.516 : en:The Monster Book of Monsters
00:16:12.513 : en:In Grave Danger
00:18:56.218 : en:The Dementor
00:23:50.387 : en:Welcome and Warning
00:28:50.729 : en:Tea Leaves
00:31:21.838 : en:Buckbeak
00:38:50.161 : en:Boggart in the Wardrobe
00:44:45.307 : en:Talent for Trouble
00:47:37.813 : en:Flight of the Fat Lady
00:49:39.935 : en:Substitute Teacher
00:53:42.844 : en:Grim Defeat
00:57:28.403 : en:The Marauder's Map
01:01:23.721 : en:Who's There
01:03:22.924 : en:I Hope He Finds Me
01:07:10.985 : en:The Patronus
01:11:53.475 : en:Seeing the Impossible
01:19:10.078 : en:Professor Trelawney's Prediction
01:22:29.945 : en:Witnesses to an Execution
01:27:30.870 : en:The Whomping Willow
01:30:13.366 : en:Sirius Black
01:34:19.028 : en:Peter Pettigrew
01:36:56.894 : en:Friends Become Foes
01:42:24.471 : en:The Dementor's Kiss
01:45:40.334 : en:Hermione's Secret
01:50:03.597 : en:Onlookers to the Rescue
01:55:33.343 : en:Saving Lives
02:00:07.408 : en:Truly Seen, Truly Free
02:03:16.055 : en:Two Places at Once
02:06:02.513 : en:Mischief Managed
02:08:42.923 : en:The Firebolt
02:09:47.404 : en:End Credits Map
[/spoiler] [/spoiler]
[spoiler=" Гарри Поттер и кубок огня / Harry Potter and the Goblet of Fire (2005)"]

[imgright]https://i.postimg.cc/wjGpQsDt/4.png[/imgright]
[font=georgia][center][color=#BF0000]Гарри Поттер
и кубок огня[/color]
[color=#004080]Harry Potter
and the Goblet of Fire [/color][/center] [/font]
[b]Год выпуска[/b]: 2005
[b]Страна[/b]: Великобритания, США, Германия
[b]Жанр[/b]: Фэнтези, приключения, семейный
[b]Продолжительность[/b]: 02:37:02
[b]Перевод[/b]: Дубляж, двухголосый закадровый, авторский

[b]Режиссер[/b]: Майк Ньюэлл / Mike Newell
[b]В ролях[/b]: Дэниэл Рэдклифф, Эмма Уотсон, Руперт Гринт, Алан Рикман, Эрик Сайкес, Тимоти Сполл, Дэвид Теннант, Марк Уильямс, Джеймс Фелпс, Оливер Фелпс, Бонни Райт, Джефф Роул, Роберт Паттинсон, Джейсон Айзекс, Том Фелтон, Станислав Яневски, Роберт Харди, Филип Рам, Оливия Хиггинботтом, Эшли Артус, Алекс Палмер, Джеральдин Сомервилль, Девон Мюррэй, Афшан Азад

[b]Описание[/b]: Гарри Поттер, Рон и Гермиона возвращаются на четвертый курс школы чародейства и волшебства Хогвартс. При таинственных обстоятельствах Гарри отобран в число участников опасного соревнования – Турнира Трех Волшебников, однако проблема в том, что все его соперники - намного старше и сильнее. К тому же, знаки указывают на возвращение Лорда Волдеморта. Вскоре Гарри предстоит побороться не только за победу в соревновании, но и, прежде всего, за свою жизнь...

[url=http://www.kinopoisk.ru/film/8408/][img]http://www.kinopoisk.ru/rating/8408.gif[/img][/url]

[b]Кодек[/b]: H264
[b]Качество[/b]: BDRip 1080p
[b]Видео[/b]: MPEG-4 AVC, 1920x800, 12400 Кбит/с, 23.976 fps
[b]Аудио 1[/b]: Русский, AC3, 6 ch, 448 Кбит/с [b]Дубляж, Blu-Ray CEE[/b]
[b]Аудио 2[/b]: Русский, AC3, 6 ch, 384 Кбит/с [b]Двухголосый закадровый, Tycoon[/b]
[b]Аудио 3[/b]: Русский, AC3, 6 ch, 448 Кбит/с [b]Двухголосый закадровый, П. Гланц и И. Королёва[/b]
[b]Аудио 4[/b]: Русский, AC3, 6 ch, 640 Кбит/с [b]Одноголосый закадровый, Ю. Сербин[/b]
[b]Аудио 5[/b]: Русский, AC3, 6 ch, 640 Кбит/с [b]Одноголосый закадровый, Л. Володарский[/b]
[b]Аудио 6[/b]: Русский, AC3, 6 ch, 448 Кбит/с [b]Одноголосый закадровый, С. Рябов[/b]
[b]Аудио 7[/b]: Английский, AC3, 6 ch, 640 Кбит/с [b]Оригинал[/b]
[b]Субтитры[/b]: Русские, английские
[b]Главы[/b]: Есть
[spoiler="Инфо файл"]
x264 [info]: frame I:1311 Avg QP:13.88 size:236294
x264 [info]: frame P:53929 Avg QP:16.23 size:119391
x264 [info]: frame B:170746 Avg QP:17.80 size: 46047
Общее
Уникальный идентификатор : 181317528652867861076726709259744805563 (0x88687C5C91906258A19002C946E382BB)
Полное имя : I:Гарри Поттер Коллекция4 Гарри Поттер и кубок огня 2005г.mkv
Формат : Matroska
Версия формата : Version 2
Размер файла : 17,6 Гбайт
Продолжительность : 2 ч. 37 м.
Общий поток : 16,1 Мбит/сек
Название фильма : mister.hats
Дата кодирования : UTC 2020-10-18 09:37:43
Программа кодирования : mkvmerge v5.8.0 ('No Sleep / Pillow') built on Sep 2 2012 15:37:04
Библиотека кодирования : libebml v1.2.3 + libmatroska v1.3.0

Видео
Идентификатор : 1
Формат : AVC
Формат/Информация : Advanced Video Codec
Профиль формата : High@L4.1
Настройки формата : CABAC / 5 Ref Frames
Параметр CABAC формата : Да
Параметр RefFrames формата : 5 кадров
Идентификатор кодека : V_MPEG4/ISO/AVC
Продолжительность : 2 ч. 37 м.
Битрейт : 12,4 Мбит/сек
Ширина : 1920 пикселей
Высота : 800 пикселей
Соотношение сторон : 2,40:1
Режим частоты кадров : Постоянный
Частота кадров : 23,976 (24000/1001) кадра/сек
Цветовое пространство : YUV
Субдискретизация насыщенности : 4:2:0
Битовая глубина : 8 бит
Тип развёртки : Прогрессивная
Бит/(Пиксели*Кадры) : 0.337
Размер потока : 13,3 Гбайт (75%)
Библиотека кодирования : x264 core 152 r2851kMod ba24899
Настройки программы : cabac=1 / ref=5 / deblock=1:-3:-3 / analyse=0x3:0x113 / me=umh / subme=11 / psy=1 / fade_compensate=0.00 / psy_rd=1.00:0.00 / mixed_ref=1 / me_range=48 / chroma_me=1 / trellis=2 / 8x8dct=1 / cqm=0 / deadzone=21,11 / fast_pskip=0 / chroma_qp_offset=-2 / threads=12 / lookahead_threads=3 / sliced_threads=0 / nr=0 / decimate=0 / interlaced=0 / bluray_compat=0 / constrained_intra=0 / bframes=14 / b_pyramid=2 / b_adapt=2 / b_bias=0 / direct=3 / weightb=1 / open_gop=0 / weightp=2 / keyint=240 / keyint_min=23 / scenecut=40 / intra_refresh=0 / rc_lookahead=40 / rc=2pass / mbtree=0 / bitrate=12400 / ratetol=1.0 / qcomp=0.60 / qpmin=0 / qpmax=39 / qpstep=4 / cplxblur=20.0 / qblur=0.5 / vbv_maxrate=50000 / vbv_bufsize=62500 / nal_hrd=none / filler=0 / ip_ratio=1.25 / pb_ratio=1.30 / aq=1:0.90
Язык : English
Default : Да
Forced : Нет
Цветовой диапазон : Limited
Основные цвета : BT.709
Характеристики трансфера : BT.709
Коэффициенты матрицы : BT.709

Аудио #1
Идентификатор : 2
Формат : AC-3
Формат/Информация : Audio Coding 3
Параметр Endianness формата : Big
Идентификатор кодека : A_AC3
Продолжительность : 2 ч. 37 м.
Вид битрейта : Постоянный
Битрейт : 448 Кбит/сек
Каналы : 6 каналов
Расположение каналов : Front: L C R, Side: L R, LFE
Частота : 48,0 КГц
Частота кадров : 31,250 кадров/сек (1536 SPF)
Битовая глубина : 16 бит
Метод сжатия : С потерями
Размер потока : 503 Мбайт (3%)
Заголовок : Дубляж, Blu-Ray CEE
Язык : Russian
Default : Да
Forced : Нет

Аудио #2
Идентификатор : 3
Формат : AC-3
Формат/Информация : Audio Coding 3
Параметр Endianness формата : Big
Идентификатор кодека : A_AC3
Продолжительность : 2 ч. 37 м.
Вид битрейта : Постоянный
Битрейт : 384 Кбит/сек
Каналы : 6 каналов
Расположение каналов : Front: L C R, Side: L R, LFE
Частота : 48,0 КГц
Частота кадров : 31,250 кадров/сек (1536 SPF)
Битовая глубина : 16 бит
Метод сжатия : С потерями
Размер потока : 431 Мбайт (2%)
Заголовок : Двухголосый закадровый, Tycoon
Язык : Russian
Default : Нет
Forced : Нет

Аудио #3
Идентификатор : 4
Формат : AC-3
Формат/Информация : Audio Coding 3
Параметр Endianness формата : Big
Идентификатор кодека : A_AC3
Продолжительность : 2 ч. 37 м.
Вид битрейта : Постоянный
Битрейт : 448 Кбит/сек
Каналы : 6 каналов
Расположение каналов : Front: L C R, Side: L R, LFE
Частота : 48,0 КГц
Частота кадров : 31,250 кадров/сек (1536 SPF)
Битовая глубина : 16 бит
Метод сжатия : С потерями
Размер потока : 503 Мбайт (3%)
Заголовок : Двухголосый закадровый, П. Гланц и И. Королёва
Язык : Russian
Default : Нет
Forced : Нет

Аудио #4
Идентификатор : 5
Формат : AC-3
Формат/Информация : Audio Coding 3
Параметр Endianness формата : Big
Идентификатор кодека : A_AC3
Продолжительность : 2 ч. 37 м.
Вид битрейта : Постоянный
Битрейт : 640 Кбит/сек
Каналы : 6 каналов
Расположение каналов : Front: L C R, Side: L R, LFE
Частота : 48,0 КГц
Частота кадров : 31,250 кадров/сек (1536 SPF)
Битовая глубина : 16 бит
Метод сжатия : С потерями
Размер потока : 719 Мбайт (4%)
Заголовок : Одноголосый закадровый, Ю. Сербин
Язык : Russian
Default : Нет
Forced : Нет

Аудио #5
Идентификатор : 6
Формат : AC-3
Формат/Информация : Audio Coding 3
Параметр Endianness формата : Big
Идентификатор кодека : A_AC3
Продолжительность : 2 ч. 37 м.
Вид битрейта : Постоянный
Битрейт : 640 Кбит/сек
Каналы : 6 каналов
Расположение каналов : Front: L C R, Side: L R, LFE
Частота : 48,0 КГц
Частота кадров : 31,250 кадров/сек (1536 SPF)
Битовая глубина : 16 бит
Метод сжатия : С потерями
Размер потока : 719 Мбайт (4%)
Заголовок : Одноголосый закадровый, Л. Володарский
Язык : Russian
Default : Нет
Forced : Нет

Аудио #6
Идентификатор : 7
Формат : AC-3
Формат/Информация : Audio Coding 3
Параметр Endianness формата : Big
Идентификатор кодека : A_AC3
Продолжительность : 2 ч. 37 м.
Вид битрейта : Постоянный
Битрейт : 448 Кбит/сек
Каналы : 6 каналов
Расположение каналов : Front: L C R, Side: L R, LFE
Частота : 48,0 КГц
Частота кадров : 31,250 кадров/сек (1536 SPF)
Битовая глубина : 16 бит
Метод сжатия : С потерями
Размер потока : 503 Мбайт (3%)
Заголовок : Одноголосый закадровый, С. Рябов
Язык : Russian
Default : Нет
Forced : Нет

Аудио #7
Идентификатор : 8
Формат : AC-3
Формат/Информация : Audio Coding 3
Параметр Endianness формата : Big
Идентификатор кодека : A_AC3
Продолжительность : 2 ч. 37 м.
Вид битрейта : Постоянный
Битрейт : 640 Кбит/сек
Каналы : 6 каналов
Расположение каналов : Front: L C R, Side: L R, LFE
Частота : 48,0 КГц
Частота кадров : 31,250 кадров/сек (1536 SPF)
Битовая глубина : 16 бит
Метод сжатия : С потерями
Размер потока : 719 Мбайт (4%)
Заголовок : Оригинал
Язык : English
Default : Нет
Forced : Нет

Текст #1
Идентификатор : 9
Формат : UTF-8
Идентификатор кодека : S_TEXT/UTF8
Идентификатор кодека/Информация : UTF-8 Plain Text
Заголовок : captions
Язык : Russian
Default : Да
Forced : Нет

Текст #2
Идентификатор : 10
Формат : UTF-8
Идентификатор кодека : S_TEXT/UTF8
Идентификатор кодека/Информация : UTF-8 Plain Text
Язык : Russian
Default : Нет
Forced : Нет

Текст #3
Идентификатор : 11
Формат : UTF-8
Идентификатор кодека : S_TEXT/UTF8
Идентификатор кодека/Информация : UTF-8 Plain Text
Язык : English
Default : Нет
Forced : Нет

Текст #4
Идентификатор : 12
Формат : UTF-8
Идентификатор кодека : S_TEXT/UTF8
Идентификатор кодека/Информация : UTF-8 Plain Text
Заголовок : SDH
Язык : English
Default : Нет
Forced : Нет

Меню
00:00:00.000 : en:The Riddle House
00:03:46.559 : en:The Hungrian Horntail
00:06:09.369 : en:Sirius Conversation
00:09:50.089 : en:Rita Keeter
00:13:45.324 : en:Let Events Unfold
00:19:14.987 : en:The Four Champions
00:23:09.388 : en:The Unforgivable Curses
00:29:01.573 : en:The Goblet of Fire
00:36:26.684 : en:The Triwizard Tournament
00:39:05.009 : en:The Dark Mark
00:41:32.489 : en:The Quidditch World Cup
00:45:36.400 : en:The Portkey
00:49:07.778 : en:Best Foot Forward
00:54:06.243 : en:The First Task
01:02:46.596 : en:Tranforming Malfoy
01:09:12.982 : en:An Unexpected Challenge
01:14:43.979 : en:The Yule Ball
01:22:27.609 : en:The Egg's Clue
01:30:34.762 : en:The Second Task
01:39:29.296 : en:Never Whole Again
01:42:42.489 : en:The Pensieve
01:47:22.936 : en:Dreams and Suspicions
01:50:19.279 : en:The Third Task
01:58:54.460 : en:Flesh, Blood and Bone
02:02:02.315 : en:The Death Eaters
02:06:36.589 : en:Priori Incantatem
02:10:01.627 : en:Veritaserum
02:17:38.083 : en:Parting Ways
02:23:48.620 : en:End Credits
[/spoiler] [/spoiler]
[spoiler="Гарри Поттер и орден Феникса / Harry Potter and the Order of the Phoenix (2007)"]
[imgright]https://i.postimg.cc/3JrQMZB4/5.png[/imgright]
[font=georgia][center][color=#BF0000]Гарри Поттер
и орден Феникса[/color]
[color=#004080]Harry Potter
and the Order of the Phoenix[/color][/center] [/font]
[b]Год выпуска[/b]: 2007
[b]Страна[/b]: Великобритания, США
[b]Жанр[/b]: Фэнтези, приключения, семейный
[b]Продолжительность[/b]: 02:18:14
[b]Перевод[/b]: Дубляж, двухголосый закадровый, авторский

[b]Режиссер[/b]: Дэвид Йетс / David Yates
[b]В ролях[/b]: Дэниэл Рэдклифф, Руперт Гринт, Эмма Уотсон, Гари Олдман, Рэйф Файнс, Майкл Гэмбон, Том Фелтон, Имелда Стонтон, Эванна Линч, Алан Рикман

[b]Описание[/b]: Гарри проводит свой пятый год обучения в школе Хогвартс и обнаруживает, что многие из членов волшебного сообщества отрицают сам факт недавнего состязания юного волшебника с воплощением вселенского зла Волан-де-Мортом, делая вид, что не имеют ни малейшего представления о том, что злодей вернулся. Опасаясь, что почтенный глава Хогвартса Альбус Дамблдор распространяет лживые слухи о возвращении Волан-де-Морта, стремясь подорвать авторитет Министра Магии Корнелиуса Фаджа и в дальнейшем занять его место, Корнелиус назначает нового профессора защиты от темных искусств, который должен будет пристально следить за Дамблдором и студентами Хогвартса. Но одобренный министерством курс лекций по защитной магии профессора Долорес Амбридж оказывается на практике абсолютно бесполезным — юные волшебники просто неспособны противостоять действию темных сил, угрожающих им и всему волшебному сообществу. И тогда, по настоянию своих друзей Гермионы и Рона, Гарри берет инициативу в свои руки...

[url=http://www.kinopoisk.ru/film/48356/][img]http://www.kinopoisk.ru/rating/48356.gif[/img][/url]

[b]Кодек[/b]: H264
[b]Качество[/b]: BDRip 1080p
[b]Видео[/b]: MPEG-4 AVC, 1920x798, 11200 Кбит/с, 23.976 fps
[b]Аудио 1[/b]: Русский, AC3, 6 ch, 640 Кбит/с [b]Дубляж, Blu-ray CEE[/b]
[b]Аудио 2[/b]: Русский, AC3, 6 ch, 448 Кбит/с [b]Двухголосый закадровый, П. Гланц и И. Королёва[/b]
[b]Аудио 3[/b]: Русский, AC3, 2 ch, 192 Кбит/с [b]Одноголосый закадровый, Ю. Сербин[/b]
[b]Аудио 4[/b]: Русский, AC3, 6 ch, 448 Кбит/с [b]Одноголосый закадровый, С. Рябов[/b]
[b]Аудио 5[/b]: Русский, AC3, 6 ch, 448 Кбит/с [b]Одноголосый закадровый, А. Медведев[/b]
[b]Аудио 6[/b]: Английский, АС3, 6 ch, 640 Кбит/с [b]Оригинал[/b]
[b]Субтитры[/b]: Русские, английские
[b]Главы[/b]: Есть
[spoiler="Инфо файл"]
x264 [info]: frame I:1512 Avg QP:12.95 size:223602
x264 [info]: frame P:44798 Avg QP:15.30 size:101400
x264 [info]: frame B:152558 Avg QP:17.19 size: 44080

Общее
Уникальный идентификатор : 226974245593205814489111525139365782972 (0xAAC1A64D72BD53F5A7F564952F3065BC)
Полное имя : I:Гарри Поттер Коллекция5 Гарри Поттер и орден Феникса 2007г.mkv
Формат : Matroska
Версия формата : Version 2
Размер файла : 13,5 Гбайт
Продолжительность : 2 ч. 18 м.
Общий поток : 14,0 Мбит/сек
Название фильма : mister.hats
Дата кодирования : UTC 2021-02-10 10:37:34
Программа кодирования : mkvmerge v5.8.0 ('No Sleep / Pillow') built on Sep 2 2012 15:37:04
Библиотека кодирования : libebml v1.2.3 + libmatroska v1.3.0

Видео
Идентификатор : 1
Формат : AVC
Формат/Информация : Advanced Video Codec
Профиль формата : High@L4.1
Настройки формата : CABAC / 5 Ref Frames
Параметр CABAC формата : Да
Параметр RefFrames формата : 5 кадров
Идентификатор кодека : V_MPEG4/ISO/AVC
Продолжительность : 2 ч. 18 м.
Битрейт : 11,2 Мбит/сек
Ширина : 1920 пикселей
Высота : 798 пикселей
Соотношение сторон : 2,40:1
Режим частоты кадров : Постоянный
Частота кадров : 23,976 (24000/1001) кадра/сек
Цветовое пространство : YUV
Субдискретизация насыщенности : 4:2:0
Битовая глубина : 8 бит
Тип развёртки : Прогрессивная
Бит/(Пиксели*Кадры) : 0.305
Размер потока : 10,5 Гбайт (78%)
Библиотека кодирования : x264 core 152 r2851kMod ba24899
Настройки программы : cabac=1 / ref=5 / deblock=1:-3:-3 / analyse=0x3:0x113 / me=umh / subme=11 / psy=1 / fade_compensate=0.00 / psy_rd=1.00:0.00 / mixed_ref=1 / me_range=48 / chroma_me=1 / trellis=2 / 8x8dct=1 / cqm=0 / deadzone=21,11 / fast_pskip=0 / chroma_qp_offset=-2 / threads=12 / lookahead_threads=3 / sliced_threads=0 / nr=0 / decimate=0 / interlaced=0 / bluray_compat=0 / constrained_intra=0 / bframes=12 / b_pyramid=2 / b_adapt=2 / b_bias=0 / direct=3 / weightb=1 / open_gop=0 / weightp=2 / keyint=240 / keyint_min=23 / scenecut=40 / intra_refresh=0 / rc_lookahead=40 / rc=2pass / mbtree=0 / bitrate=11200 / ratetol=1.0 / qcomp=0.60 / qpmin=0 / qpmax=39 / qpstep=4 / cplxblur=20.0 / qblur=0.5 / vbv_maxrate=50000 / vbv_bufsize=62500 / nal_hrd=none / filler=0 / ip_ratio=1.22 / pb_ratio=1.30 / aq=1:0.70
Язык : English
Default : Да
Forced : Нет
Цветовой диапазон : Limited
Основные цвета : BT.709
Характеристики трансфера : BT.709
Коэффициенты матрицы : BT.709

Аудио #1
Идентификатор : 2
Формат : AC-3
Формат/Информация : Audio Coding 3
Параметр Endianness формата : Big
Идентификатор кодека : A_AC3
Продолжительность : 2 ч. 18 м.
Вид битрейта : Постоянный
Битрейт : 640 Кбит/сек
Каналы : 6 каналов
Расположение каналов : Front: L C R, Side: L R, LFE
Частота : 48,0 КГц
Частота кадров : 31,250 кадров/сек (1536 SPF)
Битовая глубина : 16 бит
Метод сжатия : С потерями
Размер потока : 633 Мбайт (5%)
Заголовок : Дубляж, Blu-ray CEE
Язык : Russian
Default : Да
Forced : Нет

Аудио #2
Идентификатор : 3
Формат : AC-3
Формат/Информация : Audio Coding 3
Параметр Endianness формата : Big
Идентификатор кодека : A_AC3
Продолжительность : 2 ч. 18 м.
Вид битрейта : Постоянный
Битрейт : 448 Кбит/сек
Каналы : 6 каналов
Расположение каналов : Front: L C R, Side: L R, LFE
Частота : 48,0 КГц
Частота кадров : 31,250 кадров/сек (1536 SPF)
Битовая глубина : 16 бит
Метод сжатия : С потерями
Размер потока : 443 Мбайт (3%)
Заголовок : Двухголосый закадровый, П. Гланц и И. Королёва
Язык : Russian
Default : Нет
Forced : Нет

Аудио #3
Идентификатор : 4
Формат : AC-3
Формат/Информация : Audio Coding 3
Параметр Endianness формата : Big
Идентификатор кодека : A_AC3
Продолжительность : 2 ч. 18 м.
Вид битрейта : Постоянный
Битрейт : 192 Кбит/сек
Каналы : 2 канала
Расположение каналов : Front: L R
Частота : 48,0 КГц
Частота кадров : 31,250 кадров/сек (1536 SPF)
Битовая глубина : 16 бит
Метод сжатия : С потерями
Размер потока : 190 Мбайт (1%)
Заголовок : Одноголосый закадровый, Ю. Сербин
Язык : Russian
Default : Нет
Forced : Нет

Аудио #4
Идентификатор : 5
Формат : AC-3
Формат/Информация : Audio Coding 3
Параметр Endianness формата : Big
Идентификатор кодека : A_AC3
Продолжительность : 2 ч. 18 м.
Вид битрейта : Постоянный
Битрейт : 448 Кбит/сек
Каналы : 6 каналов
Расположение каналов : Front: L C R, Side: L R, LFE
Частота : 48,0 КГц
Частота кадров : 31,250 кадров/сек (1536 SPF)
Битовая глубина : 16 бит
Метод сжатия : С потерями
Размер потока : 443 Мбайт (3%)
Заголовок : Одноголосый закадровый, С. Рябов
Язык : Russian
Default : Нет
Forced : Нет

Аудио #5
Идентификатор : 6
Формат : AC-3
Формат/Информация : Audio Coding 3
Параметр Endianness формата : Big
Идентификатор кодека : A_AC3
Продолжительность : 2 ч. 18 м.
Вид битрейта : Постоянный
Битрейт : 448 Кбит/сек
Каналы : 6 каналов
Расположение каналов : Front: L C R, Side: L R, LFE
Частота : 48,0 КГц
Частота кадров : 31,250 кадров/сек (1536 SPF)
Битовая глубина : 16 бит
Метод сжатия : С потерями
Размер потока : 443 Мбайт (3%)
Заголовок : Одноголосый закадровый, А. Медведев
Язык : Russian
Default : Нет
Forced : Нет

Аудио #6
Идентификатор : 7
Формат : AC-3
Формат/Информация : Audio Coding 3
Параметр Endianness формата : Big
Идентификатор кодека : A_AC3
Продолжительность : 2 ч. 18 м.
Вид битрейта : Постоянный
Битрейт : 640 Кбит/сек
Каналы : 6 каналов
Расположение каналов : Front: L C R, Side: L R, LFE
Частота : 48,0 КГц
Частота кадров : 31,250 кадров/сек (1536 SPF)
Битовая глубина : 16 бит
Метод сжатия : С потерями
Размер потока : 633 Мбайт (5%)
Заголовок : Оригинал
Язык : English
Default : Нет
Forced : Нет

Текст #1
Идентификатор : 8
Формат : UTF-8
Идентификатор кодека : S_TEXT/UTF8
Идентификатор кодека/Информация : UTF-8 Plain Text
Заголовок : captions
Язык : Russian
Default : Да
Forced : Нет

Текст #2
Идентификатор : 9
Формат : UTF-8
Идентификатор кодека : S_TEXT/UTF8
Идентификатор кодека/Информация : UTF-8 Plain Text
Язык : Russian
Default : Нет
Forced : Нет

Текст #3
Идентификатор : 10
Формат : UTF-8
Идентификатор кодека : S_TEXT/UTF8
Идентификатор кодека/Информация : UTF-8 Plain Text
Язык : English
Default : Нет
Forced : Нет

Текст #4
Идентификатор : 11
Формат : UTF-8
Идентификатор кодека : S_TEXT/UTF8
Идентификатор кодека/Информация : UTF-8 Plain Text
Заголовок : SDH
Язык : English
Default : Нет
Forced : Нет

Меню
00:00:00.000 : en:Dudley Demented
00:04:50.957 : en:The Advance Guard
00:10:16.782 : en:Number Twelve, Grimmauld Place
00:15:19.919 : en:The Order of the Phoenix
00:17:43.228 : en:The Ministry of Magic
00:20:52.417 : en:The Hearing
00:25:33.532 : en:The Originals
00:28:07.352 : en:Luna Lovegood
00:30:20.985 : en:Preserve, Perfect and Prune
00:34:53.925 : en:Professor Umbridge's Class
00:37:41.092 : en:Detention With Dolores
00:41:48.506 : en:Thestrals and Sympathy
00:44:57.528 : en:The Hogwarts High Inquisitor
00:50:57.387 : en:In the Hog's Head
00:56:37.394 : en:Dumbledore's Army
01:03:28.638 : en:Under the Mistletoe
01:07:39.055 : en:Occlumency
01:11:16.105 : en:House of Black
01:16:30.252 : en:Hagrid's Tale
01:19:16.585 : en:Unquiet Escape
01:25:30.959 : en:Grawp
01:31:30.651 : en:Snape's Worst Memory
01:34:49.850 : en:O.W.L.S.
01:37:42.356 : en:Out of the Fire
01:41:40.260 : en:Fight and Flight
01:45:59.353 : en:The Department of Mysteries
01:48:37.177 : en:Beyond the Veil
01:52:40.920 : en:Side by Side
01:57:30.710 : en:Wizards Duel
02:03:33.239 : en:The Lost Prophecy
02:05:50.709 : en:A Way of Coming Back
02:08:26.865 : en:End Credits
[/spoiler] [/spoiler]
[spoiler=" Гарри Поттер и Принц-полукровка / Harry Potter and the Half-Blood Prince (2009)"]
[imgright]https://i.postimg.cc/GtdwmPnf/6.png[/imgright]
[font=georgia][center][color=#BF0000]Гарри Поттер
и Принц-полукровка[/color]
[color=#004080]Harry Potter
and the Half-Blood Prince[/color][/center] [/font]
[b]Год выпуска[/b]: 2009
[b]Страна[/b]: Великобритания, США
[b]Жанр[/b]: Фэнтези, приключения, семейный
[b]Продолжительность[/b]: 02:33:31
[b]Перевод[/b]: Дубляж, многоголосый закадровый. авторский

[b]Режиссер[/b]: Дэвид Йетс / David Yates
[b]В ролях[/b]: Дэниэл Рэдклифф, Руперт Гринт, Эмма Уотсон, Хелена Бонем Картер, Дэвид Тьюлис, Джим Броудбент, Эларика Галлахер, Робби Колтрейн, Майкл Гэмбон, Мэгги Смит, Алан Рикман, Бонни Райт

[b]Описание[/b]: Министерство магии терпит поражение за поражением в битвах с Волан-де-Мортом. Даже маглы страдают от второй войны — каждый день происходят катастрофы, причины которых никому не ведомы. Но и на войне жизнь продолжается. Гарри, Рон и Гермиона, как и все шестнадцатилетние, учатся, ходят на вечеринки и влюбляются. Однако опасность все ближе. Несмотря на все усилия Дамблдора по защите школы, в Хогвартсе происходят очень странные события. Омут памяти на этот раз откроет Гарри самую большую тайну Темного Лорда, и ради того, чтобы победить, Гарри вынужден пожертвовать самым дорогим… Какую сторону в этой войне примет загадочный Принц-полукровка?

[url=http://www.kinopoisk.ru/film/89515/][img]http://www.kinopoisk.ru/rating/89515.gif[/img][/url]

[b]Кодек[/b]: H264
[b]Качество[/b]: BDRip 1080p
[b]Видео[/b]: MPEG-4 AVC, 1920x800, 11500 Кбит/с, 23.976 fps
[b]Аудио 1[/b]: Русский, AC3, 6 ch, 640 Кбит/с [b]Дубляж, Blu-ray CEE[/b]
[b]Аудио 2[/b]: Русский, AC3, 6 ch, 448 Кбит/с [b]Многоголосый закадровый, Нордиск[/b]
[b]Аудио 3[/b]: Русский, AC3, 6 ch, 448 Кбит/с [b]Одноголосый закадровый, Ю. Сербин[/b]
[b]Аудио 4[/b]: Английский, АС3, 6 ch, 640 Кбит/с [b]Оригинал[/b]
[b]Субтитры[/b]: Русские, английские
[b]Главы[/b]: Есть
[spoiler="Инфо файл"]
x264 [info]: frame I:1492 Avg QP:11.30 size:202403
x264 [info]: frame P:43187 Avg QP:13.68 size:104685
x264 [info]: frame B:176162 Avg QP:15.74 size: 47759
Общее
Уникальный идентификатор : 250633725206778867838511054177781561375 (0xBC8E4CB5874E8E86B2106B374ADE381F)
Полное имя : I:Гарри Поттер Коллекция6 Гарри Поттер и Принц-полукровка 2009г.mkv
Формат : Matroska
Версия формата : Version 2
Размер файла : 14,5 Гбайт
Продолжительность : 2 ч. 33 м.
Общий поток : 13,5 Мбит/сек
Название фильма : mister.hats
Дата кодирования : UTC 2021-02-18 23:38:25
Программа кодирования : mkvmerge v5.8.0 ('No Sleep / Pillow') built on Sep 2 2012 15:37:04
Библиотека кодирования : libebml v1.2.3 + libmatroska v1.3.0

Видео
Идентификатор : 1
Формат : AVC
Формат/Информация : Advanced Video Codec
Профиль формата : High@L4.1
Настройки формата : CABAC / 5 Ref Frames
Параметр CABAC формата : Да
Параметр RefFrames формата : 5 кадров
Идентификатор кодека : V_MPEG4/ISO/AVC
Продолжительность : 2 ч. 33 м.
Битрейт : 11,5 Мбит/сек
Ширина : 1920 пикселей
Высота : 800 пикселей
Соотношение сторон : 2,40:1
Режим частоты кадров : Постоянный
Частота кадров : 23,976 (24000/1001) кадра/сек
Цветовое пространство : YUV
Субдискретизация насыщенности : 4:2:0
Битовая глубина : 8 бит
Тип развёртки : Прогрессивная
Бит/(Пиксели*Кадры) : 0.312
Размер потока : 12,0 Гбайт (83%)
Библиотека кодирования : x264 core 152 r2851kMod ba24899
Настройки программы : cabac=1 / ref=5 / deblock=1:-3:-3 / analyse=0x3:0x113 / me=umh / subme=11 / psy=1 / fade_compensate=0.00 / psy_rd=1.00:0.00 / mixed_ref=1 / me_range=48 / chroma_me=1 / trellis=2 / 8x8dct=1 / cqm=0 / deadzone=21,11 / fast_pskip=0 / chroma_qp_offset=-2 / threads=12 / lookahead_threads=3 / sliced_threads=0 / nr=0 / decimate=0 / interlaced=0 / bluray_compat=0 / constrained_intra=0 / bframes=13 / b_pyramid=2 / b_adapt=2 / b_bias=0 / direct=3 / weightb=1 / open_gop=0 / weightp=2 / keyint=240 / keyint_min=23 / scenecut=40 / intra_refresh=0 / rc_lookahead=40 / rc=2pass / mbtree=0 / bitrate=11500 / ratetol=1.0 / qcomp=0.60 / qpmin=0 / qpmax=39 / qpstep=4 / cplxblur=20.0 / qblur=0.5 / vbv_maxrate=50000 / vbv_bufsize=62500 / nal_hrd=none / filler=0 / ip_ratio=1.25 / pb_ratio=1.30 / aq=1:0.70
Язык : English
Default : Да
Forced : Нет
Цветовой диапазон : Limited
Основные цвета : BT.709
Характеристики трансфера : BT.709
Коэффициенты матрицы : BT.709

Аудио #1
Идентификатор : 2
Формат : AC-3
Формат/Информация : Audio Coding 3
Параметр Endianness формата : Big
Идентификатор кодека : A_AC3
Продолжительность : 2 ч. 33 м.
Вид битрейта : Постоянный
Битрейт : 448 Кбит/сек
Каналы : 6 каналов
Расположение каналов : Front: L C R, Side: L R, LFE
Частота : 48,0 КГц
Частота кадров : 31,250 кадров/сек (1536 SPF)
Битовая глубина : 16 бит
Метод сжатия : С потерями
Размер потока : 492 Мбайт (3%)
Заголовок : Дубляж, Blu-ray CEE
Язык : Russian
Default : Да
Forced : Нет

Аудио #2
Идентификатор : 3
Формат : AC-3
Формат/Информация : Audio Coding 3
Параметр Endianness формата : Big
Идентификатор кодека : A_AC3
Продолжительность : 2 ч. 33 м.
Вид битрейта : Постоянный
Битрейт : 448 Кбит/сек
Каналы : 6 каналов
Расположение каналов : Front: L C R, Side: L R, LFE
Частота : 48,0 КГц
Частота кадров : 31,250 кадров/сек (1536 SPF)
Битовая глубина : 16 бит
Метод сжатия : С потерями
Размер потока : 492 Мбайт (3%)
Заголовок : Многоголосый закадровый, Нордиск
Язык : Russian
Default : Нет
Forced : Нет

Аудио #3
Идентификатор : 4
Формат : AC-3
Формат/Информация : Audio Coding 3
Параметр Endianness формата : Big
Идентификатор кодека : A_AC3
Продолжительность : 2 ч. 33 м.
Вид битрейта : Постоянный
Битрейт : 448 Кбит/сек
Каналы : 6 каналов
Расположение каналов : Front: L C R, Side: L R, LFE
Частота : 48,0 КГц
Частота кадров : 31,250 кадров/сек (1536 SPF)
Битовая глубина : 16 бит
Метод сжатия : С потерями
Размер потока : 492 Мбайт (3%)
Заголовок : Одноголосый закадровый, Ю. Сербин
Язык : Russian
Default : Нет
Forced : Нет

Аудио #4
Идентификатор : 5
Формат : AC-3
Формат/Информация : Audio Coding 3
Параметр Endianness формата : Big
Идентификатор кодека : A_AC3
Продолжительность : 2 ч. 33 м.
Вид битрейта : Постоянный
Битрейт : 640 Кбит/сек
Каналы : 6 каналов
Расположение каналов : Front: L C R, Side: L R, LFE
Частота : 48,0 КГц
Частота кадров : 31,250 кадров/сек (1536 SPF)
Битовая глубина : 16 бит
Метод сжатия : С потерями
Размер потока : 703 Мбайт (5%)
Заголовок : Оригинал
Язык : English
Default : Нет
Forced : Нет

Текст #1
Идентификатор : 6
Формат : UTF-8
Идентификатор кодека : S_TEXT/UTF8
Идентификатор кодека/Информация : UTF-8 Plain Text
Заголовок : captions
Язык : Russian
Default : Да
Forced : Нет

Текст #2
Идентификатор : 7
Формат : UTF-8
Идентификатор кодека : S_TEXT/UTF8
Идентификатор кодека/Информация : UTF-8 Plain Text
Язык : Russian
Default : Нет
Forced : Нет

Текст #3
Идентификатор : 8
Формат : UTF-8
Идентификатор кодека : S_TEXT/UTF8
Идентификатор кодека/Информация : UTF-8 Plain Text
Язык : English
Default : Нет
Forced : Нет

Меню
00:00:00.000 : en:Who's Harry Potter?
00:05:28.494 : en:Horace Slughorn
00:12:13.941 : en:What Could Be Safer?
00:14:57.146 : en:Snape's Visitors
00:18:43.205 : en:Draco's Detour
00:22:30.515 : en:That's For My Father
00:27:36.029 : en:Dark Forces
00:32:04.631 : en:The Half-Blooded Prince
00:37:48.224 : en:The Secret Riddle
00:44:48.352 : en:Hermione's Helping Hand
00:49:31.760 : en:Cursed Necklace
00:54:55.375 : en:Slug Club
01:00:00.305 : en:Felix Felicis
01:03:09.660 : en:How It Feels
01:05:57.161 : en:Free Agents
01:09:13.691 : en:The Unbreakable Vow
01:14:00.102 : en:Death Eaters Attack
01:21:09.781 : en:A Sluggish Memory
01:26:31.477 : en:Perilous Potions
01:33:37.403 : en:Sectumsempra
01:39:57.324 : en:Hiding the Book
01:43:16.273 : en:Liquid Luck
01:48:24.748 : en:After Aragog's Burial
01:52:30.118 : en:Horcruxes
01:56:53.673 : en:The Cave
02:02:11.741 : en:Inferi Attack
02:08:33.539 : en:The Astronomy Tower
02:15:00.300 : en:Flight of the Princess
02:19:08.048 : en:R.A.B.
02:23:54.125 : en:End Credits
[/spoiler] [/spoiler]
[spoiler="Гарри Поттер и Дары смерти: Часть 1 / Harry Potter and the Deathly Hallows: Part 1 (2010)"]
[imgright]https://i.postimg.cc/qRfH9Vb4/7.png[/imgright]
[font=georgia][center][color=#BF0000]Гарри Поттер
и Дары смерти: Часть 1 [/color]
[color=#004080]Harry Potter
and the Deathly Hallows: Part 1 [/color][/center] [/font]
[b]Год выпуска[/b]: 2010
[b]Страна[/b]: Великобритания, США
[b]Жанр[/b]: Фэнтези, приключения, семейный
[b]Продолжительность[/b]: 02:26:05
[b]Перевод[/b]: Дубляж, многоголосый закадровый, двухголосый закадровый, авторский

[b]Режиссер[/b]: Дэвид Йетс / David Yates
[b]В ролях[/b]: Дэниэл Рэдклифф, Эмма Уотсон, Том Фелтон, Руперт Гринт, Хелена Бонем, Картер Рэйф, Файнс Клеманс, Поэзи Бонни, Райт Рис Иванс, Алан Рикман

[b]Описание[/b]: Гарри Поттера ждёт самое страшное испытание в жизни - смертельная схватка с Волан-де-Мортом. Ждать помощи не от кого - Гарри одинок, как никогда… Друзья и враги Гарри предстают в совершенно неожиданном свете. Граница между Добром и Злом становится всё призрачнее…

[url=http://www.kinopoisk.ru/film/276762/][img]http://www.kinopoisk.ru/rating/276762.gif[/img][/url]

[b]Кодек[/b]: H264
[b]Качество[/b]: BDRip 1080p
[b]Видео[/b]: MPEG-4 AVC, 1920x800, 11600 Кбит/с, 23.976 fps
[b]Аудио 1[/b]: Русский, AC3, 6 ch, 640 Кбит/с [b]Дубляж, Blu-ray CEE[/b]
[b]Аудио 2[/b]: Русский, AC3, 6 ch, 640 Кбит/с [b]Одноголосый закадровый, Ю.Сербин[/b]
[b]Аудио 3[/b]: Английский, AC3, 6 ch, 640 Кбит/с [b]Оригинал[/b]
[b]Субтитры[/b]: Русские, английские
[b]Главы[/b]: Есть
[spoiler="Инфо файл"]
x264 [info]: frame I:1365 Avg QP:12.32 size:239212
x264 [info]: frame P:51967 Avg QP:14.39 size:109252
x264 [info]: frame B:156824 Avg QP:16.63 size: 42736
Общее
Уникальный идентификатор : 218650740165337399989329089676081208238 (0xA47E99CD0670AEA186FD94FC3BC59BAE)
Полное имя : I:Гарри Поттер Коллекция7 Гарри Поттер и Дары смерти Часть 1 2010г.mkv
Формат : Matroska
Версия формата : Version 2
Размер файла : 13,8 Гбайт
Продолжительность : 2 ч. 26 м.
Общий поток : 13,5 Мбит/сек
Название фильма : mister.hats
Дата кодирования : UTC 2020-11-19 11:52:13
Программа кодирования : mkvmerge v5.8.0 ('No Sleep / Pillow') built on Sep 2 2012 15:37:04
Библиотека кодирования : libebml v1.2.3 + libmatroska v1.3.0

Видео
Идентификатор : 1
Формат : AVC
Формат/Информация : Advanced Video Codec
Профиль формата : High@L4.1
Настройки формата : CABAC / 9 Ref Frames
Параметр CABAC формата : Да
Параметр RefFrames формата : 9 кадров
Идентификатор кодека : V_MPEG4/ISO/AVC
Продолжительность : 2 ч. 26 м.
Битрейт : 11,6 Мбит/сек
Ширина : 1920 пикселей
Высота : 800 пикселей
Соотношение сторон : 2,40:1
Режим частоты кадров : Постоянный
Частота кадров : 23,976 (24000/1001) кадра/сек
Цветовое пространство : YUV
Субдискретизация насыщенности : 4:2:0
Битовая глубина : 8 бит
Тип развёртки : Прогрессивная
Бит/(Пиксели*Кадры) : 0.315
Размер потока : 11,6 Гбайт (84%)
Библиотека кодирования : x264 core 152 r2851kMod ba24899
Настройки программы : cabac=1 / ref=9 / deblock=1:-3:-3 / analyse=0x3:0x113 / me=umh / subme=11 / psy=1 / fade_compensate=0.00 / psy_rd=1.00:0.00 / mixed_ref=1 / me_range=48 / chroma_me=1 / trellis=2 / 8x8dct=1 / cqm=0 / deadzone=21,11 / fast_pskip=0 / chroma_qp_offset=-2 / threads=12 / lookahead_threads=2 / sliced_threads=0 / nr=0 / decimate=0 / interlaced=0 / bluray_compat=0 / constrained_intra=0 / bframes=9 / b_pyramid=2 / b_adapt=2 / b_bias=0 / direct=3 / weightb=1 / open_gop=0 / weightp=2 / keyint=240 / keyint_min=23 / scenecut=40 / intra_refresh=0 / rc_lookahead=40 / rc=2pass / mbtree=0 / bitrate=11600 / ratetol=1.0 / qcomp=0.60 / qpmin=0 / qpmax=39 / qpstep=4 / cplxblur=20.0 / qblur=0.5 / vbv_maxrate=50000 / vbv_bufsize=62500 / nal_hrd=none / filler=0 / ip_ratio=1.25 / pb_ratio=1.30 / aq=1:0.80
Язык : English
Default : Да
Forced : Нет
Цветовой диапазон : Limited
Основные цвета : BT.709
Характеристики трансфера : BT.709
Коэффициенты матрицы : BT.709

Аудио #1
Идентификатор : 2
Формат : AC-3
Формат/Информация : Audio Coding 3
Параметр Endianness формата : Big
Идентификатор кодека : A_AC3
Продолжительность : 2 ч. 26 м.
Вид битрейта : Постоянный
Битрейт : 640 Кбит/сек
Каналы : 6 каналов
Расположение каналов : Front: L C R, Side: L R, LFE
Частота : 48,0 КГц
Частота кадров : 31,250 кадров/сек (1536 SPF)
Битовая глубина : 16 бит
Метод сжатия : С потерями
Размер потока : 669 Мбайт (5%)
Заголовок : Дубляж, Blu-ray CEE
Язык : Russian
Default : Да
Forced : Нет

Аудио #2
Идентификатор : 3
Формат : AC-3
Формат/Информация : Audio Coding 3
Параметр Endianness формата : Big
Идентификатор кодека : A_AC3
Продолжительность : 2 ч. 26 м.
Вид битрейта : Постоянный
Битрейт : 640 Кбит/сек
Каналы : 6 каналов
Расположение каналов : Front: L C R, Side: L R, LFE
Частота : 48,0 КГц
Частота кадров : 31,250 кадров/сек (1536 SPF)
Битовая глубина : 16 бит
Метод сжатия : С потерями
Размер потока : 669 Мбайт (5%)
Заголовок : Одноголосый закадровый, Ю.Сербин
Язык : Russian
Default : Нет
Forced : Нет

Аудио #3
Идентификатор : 4
Формат : AC-3
Формат/Информация : Audio Coding 3
Параметр Endianness формата : Big
Идентификатор кодека : A_AC3
Продолжительность : 2 ч. 26 м.
Вид битрейта : Постоянный
Битрейт : 640 Кбит/сек
Каналы : 6 каналов
Расположение каналов : Front: L C R, Side: L R, LFE
Частота : 48,0 КГц
Частота кадров : 31,250 кадров/сек (1536 SPF)
Битовая глубина : 16 бит
Метод сжатия : С потерями
Размер потока : 669 Мбайт (5%)
Заголовок : Оригинал
Язык : English
Default : Нет
Forced : Нет

Текст #1
Идентификатор : 5
Формат : UTF-8
Идентификатор кодека : S_TEXT/UTF8
Идентификатор кодека/Информация : UTF-8 Plain Text
Заголовок : captions
Язык : Russian
Default : Да
Forced : Нет

Текст #2
Идентификатор : 6
Формат : UTF-8
Идентификатор кодека : S_TEXT/UTF8
Идентификатор кодека/Информация : UTF-8 Plain Text
Язык : Russian
Default : Нет
Forced : Нет

Текст #3
Идентификатор : 7
Формат : UTF-8
Идентификатор кодека : S_TEXT/UTF8
Идентификатор кодека/Информация : UTF-8 Plain Text
Язык : English
Default : Нет
Forced : Нет

Меню
00:00:00.000 : en:Dark Times
00:04:18.508 : en:Dark Lord Ascending
00:09:46.627 : en:The Seven Potters
00:15:16.206 : en:Aerial Ambush
00:19:13.569 : en:Fallen Warrior
00:26:04.229 : en:Dumbledore's Will
00:31:37.770 : en:The Wedding
00:35:43.307 : en:A Place to Hide
00:41:37.536 : en:Kreacher's Tale
00:45:45.617 : en:Theft of a Thief
00:50:14.094 : en:Ministry Interior
00:55:02.715 : en:Secret Files
00:58:31.174 : en:Lifting the Locket
01:03:41.358 : en:Forest Fugitives
01:10:02.197 : en:Getting Too Close
01:14:30.924 : en:Broken Ranks
01:18:48.848 : en:Invitation to Dance
01:22:17.598 : en:Clues Revealed
01:24:55.089 : en:Godric's Hollow
01:28:03.194 : en:Bathilda's Secret
01:32:34.173 : en:The Silver Doe
01:37:40.228 : en:Sword of Gryffindor
01:42:37.567 : en:Lighting the Way Back
01:47:54.133 : en:The Three Brothers
01:53:48.112 : en:The Deathly Hallows
01:57:30.960 : en:Snatchers Strike
02:01:27.988 : en:Malfoy Manor
02:05:42.159 : en:Dobby Has No Master
02:09:42.732 : en:Sleeping Friend
02:13:16.029 : en:Grave Robber
02:14:47.120 : en:End Credits
[/spoiler] [/spoiler]
[spoiler="Гарри Поттер и Дары смерти: Часть 2 / Harry Potter and the Deathly Hallows: Part 2 (2011)"]
[imgright]https://i.postimg.cc/W3McVWCr/8.png[/imgright]
[font=georgia][center][color=#BF0000]Гарри Поттер
и Дары смерти: Часть 2[/color]
[color=#004080]Harry Potter
and the Deathly Hallows: Part 2[/color][/center] [/font]
[b]Год выпуска[/b]: 2011
[b]Страна[/b]: Великобритания, США
[b]Жанр[/b]: Фэнтези, приключения, семейный
[b]Продолжительность[/b]: 02:10:29
[b]Перевод[/b]: Дубляж, авторский

[b]Режиссер[/b]: Дэвид Йетс / David Yates
[b]В ролях[/b]: Дэниэл Рэдклифф, Руперт Гринт, Эмма Уотсон, Рэйф Файнс, Алан Рикман, Хелена Бонем Картер, Том Фелтон, Гари Олдман, Майкл Гэмбон, Мэгги Смит

[b]Описание[/b]: В грандиозной последней главе битва между добрыми и злыми силами мира волшебников перерастает во всеобщую войну. Ставки ещё никогда не были так высоки, а поиск убежища - столь сложен. И быть может именно Гарри Поттеру придется пожертвовать всем в финальном сражении с Волан-де-Мортом. Способен ли наш герой спасти мир? И всё закончится здесь.

[url=http://www.kinopoisk.ru/film/407636/][img]http://www.kinopoisk.ru/rating/407636.gif[/img][/url]

[b]Кодек[/b]: H264
[b]Качество[/b]: BDRip 1080p
[b]Видео[/b]: MPEG-4 AVC, 1920x800 Кбит/с , 12300 Кбит/с, 23.976 fps
[b]Аудио 1[/b]: Русский, AC3, 6 ch, 640 Кбит/с [b]Дубляж, Blu-ray CEE[/b]
[b]Аудио 2[/b]: Русский, AC3, 6 ch, 640 Кбит/с [b]Одноголосый закадровый, Ю.Сербин[/b]
[b]Аудио 3[/b]: Английский, AC3, 6 ch, 640 Кбит/с [b]Оригинал[/b]
[b]Субтитры[/b]: Русские, английские
[b]Главы[/b]: Есть
[spoiler="Инфо файл"]
Общее
Уникальный идентификатор : 171356016067727592429650701590575451174 (0x80E9F7DF343D5CCC908A05496C9C0C26)
Полное имя : I:Гарри Поттер Коллекция8 Гарри Поттер и Дары смерти Часть 2 2011г.mkv
Формат : Matroska
Версия формата : Version 2
Размер файла : 14,8 Гбайт
Продолжительность : 2 ч. 32 м.
Общий поток : 13,9 Мбит/сек
Название фильма : mister.hats
Дата кодирования : UTC 2021-03-22 16:06:39
Программа кодирования : mkvmerge v5.8.0 ('No Sleep / Pillow') built on Sep 2 2012 15:37:04
Библиотека кодирования : libebml v1.2.3 + libmatroska v1.3.0

Видео
Идентификатор : 1
Формат : AVC
Формат/Информация : Advanced Video Codec
Профиль формата : High@L4.1
Настройки формата : CABAC / 5 Ref Frames
Параметр CABAC формата : Да
Параметр RefFrames формата : 5 кадров
Идентификатор кодека : V_MPEG4/ISO/AVC
Продолжительность : 2 ч. 32 м.
Битрейт : 12,3 Мбит/сек
Ширина : 1920 пикселей
Высота : 798 пикселей
Соотношение сторон : 2,40:1
Режим частоты кадров : Постоянный
Частота кадров : 23,976 (24000/1001) кадра/сек
Цветовое пространство : YUV
Субдискретизация насыщенности : 4:2:0
Битовая глубина : 8 бит
Тип развёртки : Прогрессивная
Бит/(Пиксели*Кадры) : 0.335
Размер потока : 12,5 Гбайт (84%)
Библиотека кодирования : x264 core 142 r2409+42 04be48a tMod [8-bit@4:2:0 X86_64]
Настройки программы : cabac=1 / ref=5 / deblock=1:-2:-2 / analyse=0x3:0x113 / me=umh / subme=11 / psy=1 / fade_compensate=0.00 / psy_rd=1.20:0.00 / mixed_ref=1 / me_range=48 / chroma_me=1 / trellis=2 / 8x8dct=1 / cqm=0 / deadzone=21,11 / fast_pskip=0 / chroma_qp_offset=-2 / threads=12 / lookahead_threads=3 / sliced_threads=0 / nr=0 / decimate=1 / interlaced=0 / bluray_compat=0 / constrained_intra=0 / fgo=0 / bframes=10 / b_pyramid=2 / b_adapt=2 / b_bias=0 / direct=3 / weightb=1 / open_gop=0 / weightp=2 / keyint=250 / keyint_min=23 / scenecut=40 / intra_refresh=0 / rc_lookahead=120 / rc=2pass / mbtree=1 / bitrate=12300 / ratetol=1.0 / qcomp=0.80 / qpmin=0:0:0 / qpmax=69:69:69 / qpstep=4 / cplxblur=20.0 / qblur=0.5 / vbv_maxrate=62500 / vbv_bufsize=78125 / nal_hrd=none / filler=0 / ip_ratio=1.10 / aq=4:0.70 / aq-sensitivity=11.00 / aq-factor=1.00:1.00:1.00 / aq2=1:0.60 / aq2-sensitivity=9.00 / aq2-factor=1.00:1.00:1.00 / aq3=1:[0.60:0.60]:[0.60:0.60]:[0.60:0.60]:[0.60:0.60] / aq3-sensitivity=10.00 / aq3-factor=[1.00:1.00]:[1.00:1.00]:[1.00:1.00] / aq3-boundary=192:64:24
Язык : English
Default : Да
Forced : Нет
Цветовой диапазон : Limited
Основные цвета : BT.709
Характеристики трансфера : BT.709
Коэффициенты матрицы : BT.709

Аудио #1
Идентификатор : 2
Формат : AC-3
Формат/Информация : Audio Coding 3
Параметр Endianness формата : Big
Идентификатор кодека : A_AC3
Продолжительность : 2 ч. 32 м.
Вид битрейта : Постоянный
Битрейт : 640 Кбит/сек
Каналы : 6 каналов
Расположение каналов : Front: L C R, Side: L R, LFE
Частота : 48,0 КГц
Частота кадров : 31,250 кадров/сек (1536 SPF)
Битовая глубина : 16 бит
Метод сжатия : С потерями
Размер потока : 697 Мбайт (5%)
Заголовок : Дубляж, Blu-ray CEE
Язык : Russian
Default : Да
Forced : Нет

Аудио #2
Идентификатор : 3
Формат : AC-3
Формат/Информация : Audio Coding 3
Параметр Endianness формата : Big
Идентификатор кодека : A_AC3
Продолжительность : 2 ч. 32 м.
Вид битрейта : Постоянный
Битрейт : 640 Кбит/сек
Каналы : 6 каналов
Расположение каналов : Front: L C R, Side: L R, LFE
Частота : 48,0 КГц
Частота кадров : 31,250 кадров/сек (1536 SPF)
Битовая глубина : 16 бит
Метод сжатия : С потерями
Размер потока : 697 Мбайт (5%)
Заголовок : Одноголосый закадровый, Ю.Сербин
Язык : Russian
Default : Нет
Forced : Нет

Аудио #3
Идентификатор : 4
Формат : AC-3
Формат/Информация : Audio Coding 3
Параметр Endianness формата : Big
Идентификатор кодека : A_AC3
Продолжительность : 2 ч. 32 м.
Вид битрейта : Постоянный
Битрейт : 640 Кбит/сек
Каналы : 6 каналов
Расположение каналов : Front: L C R, Side: L R, LFE
Частота : 48,0 КГц
Частота кадров : 31,250 кадров/сек (1536 SPF)
Битовая глубина : 16 бит
Метод сжатия : С потерями
Размер потока : 697 Мбайт (5%)
Заголовок : Оригинал
Язык : English
Default : Нет
Forced : Нет

Текст #1
Идентификатор : 5
Формат : UTF-8
Идентификатор кодека : S_TEXT/UTF8
Идентификатор кодека/Информация : UTF-8 Plain Text
Заголовок : captions
Язык : Russian
Default : Да
Forced : Нет

Текст #2
Идентификатор : 6
Формат : UTF-8
Идентификатор кодека : S_TEXT/UTF8
Идентификатор кодека/Информация : UTF-8 Plain Text
Язык : Russian
Default : Нет
Forced : Нет

Текст #3
Идентификатор : 7
Формат : UTF-8
Идентификатор кодека : S_TEXT/UTF8
Идентификатор кодека/Информация : UTF-8 Plain Text
Язык : English
Default : Нет
Forced : Нет

Меню
00:00:00.000 : en:Shell Cottage
00:02:58.219 : en:Griphook's Price
00:06:21.172 : en:He's After You
00:10:21.871 : en:Gringotts
00:14:27.992 : en:Copping the Cup
00:20:05.621 : en:Exit the Dragon
00:22:47.783 : en:Final Hiding Place
00:25:38.620 : en:Aberforth Dumbledore
00:30:46.803 : en:Hogwarts Reunion
00:34:33.654 : en:Give Me Harry Potter
00:40:32.263 : en:Duty To Our School
00:45:52.249 : en:You Need Only Ask
00:50:15.470 : en:Blow For Blow
00:54:41.027 : en:Finding the Diadem
00:59:01.245 : en:Fiendfyre
01:03:42.067 : en:He Will Come To Me
01:07:06.063 : en:Your Mother's Eyes
01:11:24.488 : en:Confront Your Fate
01:14:38.932 : en:Visions of a Life
01:23:40.848 : en:I Open At the Close
01:29:17.727 : en:The Boy Who Lived
01:31:25.020 : en:King's Cross
01:36:37.666 : en:Declare Yourself
01:41:09.104 : en:Not Over
01:46:42.312 : en:The Wand's Choice
01:50:18.361 : en:The Wizard's Choice
01:54:16.682 : en:Nineteen Years Later
01:58:12.876 : en:End Credits
[/spoiler] [/spoiler]

[center][img]https://i.postimg.cc/jdyw9tMd/harry-potter-collection-52849e481afd5.png[/img][/center]

   Похожие торренты   Торрент   Размер 
В этой теме нет новых непрочитанных сообщений. Гарри Поттер: Коллекция / Harry Potter: Collection (2001-2011) BDRip-HEVC 1080p | D

8 | 1

46.91 ГБ

В этой теме нет новых непрочитанных сообщений. Гарри Поттер: Коллекция / Harry Potter: Collection (2001-2011) UHD BDRip-HEVC 1080p | HDR | D

0 | 0

55.86 ГБ

В этой теме нет новых непрочитанных сообщений. Гарри Поттер. Полная коллекция / Harry Potter Complete 8-Film Collection (2001-2011) UHD BDRemux 2160p | 4K | HDR | D

38 | 12

483.43 ГБ

В этой теме нет новых непрочитанных сообщений. Гарри Поттер и философский камень / Harry Potter and the Sorcerer's Stone (2001) HDTV-Hybrid 1080p | D, P, P2, A, L1 | Open Matte | Theatrical Cut | Fundamental Collection

10 | 5

49.73 ГБ

В этой теме нет новых непрочитанных сообщений. Гарри Поттер и философский камень / Harry Potter and the Sorcerer's Stone (2001) BDRip-HEVC 1080p от RIPS CLUB | D, P, P2, A, L1 | Theatrical Cut

39 | 6

17.1 ГБ

В этой теме нет новых непрочитанных сообщений. Гарри Поттер и философский камень / Harry Potter and the Sorcerer's Stone (2001) WEB-DL 1080p | D, P, P2, A | Open Matte

22 | 2

22.78 ГБ

В этой теме нет новых непрочитанных сообщений. Гарри Поттер и философский камень / Harry Potter and the Sorcerer's Stone (2001) WEB-DL 1080p | D, P, P2, A | Open Matte

2 | 0

22.78 ГБ




Вы не можете начинать темы
Вы не можете отвечать на сообщения
Вы не можете редактировать свои сообщения
Вы не можете удалять свои сообщения
Вы не можете добавлять вложения

Перейти:  
Контактная информация: rstracker[пёсик]yandex.ru
 Вход
ppkBB3cker v.2 © 2008-2014 @ PPK
[ Time : 0.023s | 18 Queries | GZIP : Off ]

cron